Filecrypt zeigt vereinzelt Files als "n/a". Die Downloads sind trotzdem komplett.

DNS SERVER AENDERNum der staatlichen Zensur zu umgehen. Sollten wir von eurem Provider geseprrt werden, nutzt den TOR BROWSER oder ändert euren DNS SERVER.

Filmwünsche können bei uns im Forum abgegeben werden

Wir Speichern Nicht




 
 
 
Top Releases
Sicario.2.Soldado.2018.Germa...
Sicario.2.Soldado.2018.Germa...
Ein.Kind.zur.Zeit.German.DL....
Ein.Kind.zur.Zeit.German.DL....
Backstabbing.for.Beginners.2...
Backstabbing.for.Beginners.2...
Jim.Knopf.und.Lukas.der.Loko...
Jim.Knopf.und.Lukas.der.Loko...
Sicario.2.Soldado.2018.MULTi...
Backstabbing.for.Beginners.2...

Cinedubs
The.Happytime.Murders.Kein.S...
The.Happytime.Murders.Kein.S...
Peppermint.Angel.of.Vengeanc...
Peppermint.Angel.of.Vengeanc...
The.Nun.German.AC3D.DL.1080p...
Christopher.Robin.German.DL....
Christopher.Robin.German.DL....
A.Star.Is.Born.German.DL.AC3...
A.Star.Is.Born.German.DL.AC3...
Mission.Impossible.Fallout.G...

Neuerscheinungen 2017-18
Strasse.der.Gewalt.White.Lin...
Darkman.II.The.Return.Of.Dur...
Spuk.von.draussen.1987.GERMA...
Darkman.III.Die.Darkman.Die....
Darkman.III.Das.Experiment.G...
Future.World.2018.GERMAN.DL....
Future.World.2018.GERMAN.720...
Collateral.Terror.Battle.for...
Arbor.Men.Eine.daemonische.L...
How.to.Party.with.Mom.German...

XXX
Phat.Black.Ass.Worship.XXX.1...
Phat.Black.Ass.Worship.XXX.7...
GirlFap.E66.Chrissy.Playing....
CastingFrancais.18.11.19.Kat...
ConorCoxxx.17.11.17.Charlee....
FTVMilfs.18.11.20.Silvia.Sai...
FoxxedUp.18.11.13.Cristi.Ann...
FirstAnalQuest.18.11.18.Hann...
Cosmid.18.11.19.Emma.Rae.Ste...
DaneJones.18.11.20.Sasha.Col...
Do.Me.Any.Way.You.Wanna.XXX....
FitnessRooms.18.11.19.Nicole...
ConorCoxxx.17.11.03.Emmy.Lyn...
ClubSeventeen.18.11.19.Lena....
DigitalPlayground.18.11.19.D...
FakeDrivingSchool.18.11.19.R...
ConorCoxxx.17.11.10.Kimmy.Le...
DateSlam.18.11.19.Fang.Shave...
GirlFap.E65.Kali.Kavalli.Bus...
GirlFap.E64.Baily.Private.Co...

3D
The.Art.of.Flight.3D.2011.Ge...
The.End.Of.The.World.3D.2010...
The.First.Avenger.Civil.War....
Die.Unglaublichen.2.2018.3D....
Skyscraper.3D.2018.MULTi.COM...
Ant-Man.And.The.Wasp.3D.2018...
Ant.Man.and.the.Wasp.3D.2018...
Die.Unglaublichen.2.3D.2018....
Die.Unglaublichen.2.2018.3D....
Die.Unglaublichen.2.2018.3D....
Sharknado.6.The.Last.One.3D....
Deep.Kleine.Helden.der.Tiefs...
Deep.3D.2017.MULTI.COMPLETE....
Detective.Dee.und.die.Legend...
Detective.Dee.und.die.Legend...

Old_Stuff
Dunkirk.1958.COMPLETE.BLURAY...
Das.Wunder.von.Manhattan.199...
The.Amazing.Spiderman.2.Rise...
Rise.of.the.Predator.2014.Ge...
Detective.Dee.und.das.Geheim...
Detective.Dee.Und.Der.Fluch....
Ghost.Rider.Spirit.of.Vengea...
Species.IV.Das.Erwachen.2007...
Species.IV.Das.Erwachen.2007...
Hotel.Transsilvanien.2012.Ge...
The.Dead.2010.German.DL.1080...
The.Dead.2.India.2013.German...
Britney.Spears.Live.The.Femm...
Buffy.The.Vampire.Slayer.199...
IMAX.Ride.Around.The.World.2...

Filme
Amityville.Horror.Eine.wahre...
Amour.Fou.2014.German.1080p....
Amphibious.Creature.of.the.D...
Amsterdam.Heavy.2011.German....
Assassins.Bullet.2012.German...
Pechvoegel.aka.Crackers.1984...
Houdini.1953.German.AC3D.DL....
Moerderischer.Vorsprung.aka....
How.to.Party.with.Mom.2018.G...
Ein.Kind.zur.Zeit.2017.Germa...
Disney.Fairies.Die.grossen.F...
Mickys.turbulente.Weihnachts...
Bitter.Enemies.2017.German.1...
Freddie.Knollers.Flucht.vor....
Die.Kinder.der.Hippies.GERMA...
Amy.2015.German.SUBBED.DL.10...
Jim.Knopf.und.Lukas.der.Loko...
Spuk.unterm.Riesenrad.1979.G...
Supergirl.S03.COMPLETE.GERMA...
Shoot.Em.Up.2006.Open.Matte....
Spuk.im.Hochhaus.1982.GERMAN...
Humans.S03.German.DD20.Dubbe...
The.Darkest.Minds.Die.Ueberl...
The.Darkest.Minds.Die.Ueberl...

 
 
Amsterdam.Heavy.2011.German.DL.1080p.BluRay.x264-EHLE

Jahr: 2011
Genre: Action, Thriller
Sprache: Deutsch DTS | Englisch DTS
Laufzeit: 1h 31mn
Bitrate: 6 331 Kbps
Format: MKV
Größe: 4.04 GiB
Release:

Beschreibung:

Als JD aus dem Container aus Bangkok purzelt im Hafen von Amsterdam, hat er keine Ahnung, wie er heißt oder wer er ist, allein eine mit Glas in den Arm geschnittene Telefonnummer ist ein Anhaltspunkt. Die Nummer führt zu Monique, die im Rotlichtviertel strippt in einem Laden, der nicht ganz zufällig dem Gangster Gunther gehört, dessen Schläger JD schon seit der Ankunft nachstellen. Stellt sich heraus, dass Monique eine Undercover-Polizistin ist, und JD anscheinend mal Gunthers Partner war. Doch nicht nur Gunther will JD an den Kragen.



Complete name                            : e_amsterdamheavy_1080p.mkv
Format                                   : Matroska
Format version                           : Version 2
File size                                : 4.04 GiB
Duration                                 : 1h 31mn
Overall bit rate                         : 6 331 Kbps
Encoded date                             : UTC 2011-12-09 10:46:29
Writing application                      : mkvmerge v4.8.0 ('I Got The...') gebaut am May 24 2011 03:12:58
Writing library                          : libebml v1.2.0 + libmatroska v1.1.0

Video
ID                                       : 1
Format                                   : AVC
Format/Info                              : Advanced Video Codec
Format profile                           : High@L4.1
Format settings, CABAC                   : Yes
Format settings, ReFrames                : 5 frames
Codec ID                                 : V_MPEG4/ISO/AVC
Duration                                 : 1h 31mn
Bit rate                                 : 3 928 Kbps
Width                                    : 1 920 pixels
Height                                   : 816 pixels
Display aspect ratio                     : 2.35:1
Frame rate mode                          : Constant
Frame rate                               : 23.976 fps
Color space                              : YUV
Chroma subsampling                       : 4:2:0
Bit depth                                : 8 bits
Scan type                                : Progressive
Bits/(Pixel*Frame)                       : 0.105
Stream size                              : 2.50 GiB (62%)
Writing library                          : x264 core 119 r2106 07efeb4
Encoding settings                        : cabac=1 / ref=5 / deblock=1:0:0 / analyse=0x3:0x113 / me=umh / subme=7 / psy=1 / psy_rd=1.00:0.00 / mixed_ref=1 / me_range=16 / chroma_me=1 / trellis=1 / 8x8dct=1 / cqm=0 / deadzone=21,11 / fast_pskip=0 / chroma_qp_offset=-2 / threads=12 / sliced_threads=0 / nr=0 / decimate=1 / interlaced=0 / bluray_compat=0 / constrained_intra=0 / bframes=3 / b_pyramid=2 / b_adapt=1 / b_bias=0 / direct=1 / weightb=1 / open_gop=0 / weightp=2 / keyint=250 / keyint_min=23 / scenecut=40 / intra_refresh=0 / rc_lookahead=40 / rc=crf / mbtree=1 / crf=20.0 / qcomp=0.60 / qpmin=0 / qpmax=69 / qpstep=4 / ip_ratio=1.40 / aq=1:1.00
Default                                  : Yes
Forced                                   : No

Audio #1
ID                                       : 2
Format                                   : DTS
Format/Info                              : Digital Theater Systems
Mode                                     : 16
Format settings, Endianness              : Big
Codec ID                                 : A_DTS
Duration                                 : 1h 31mn
Bit rate mode                            : Constant
Bit rate                                 : 1 509 Kbps
Channel(s)                               : 6 channels
Channel positions                        : Front: L C R, Side: L R, LFE
Sampling rate                            : 48.0 KHz
Bit depth                                : 24 bits
Compression mode                         : Lossy
Stream size                              : 985 MiB (24%)
Language                                 : German
Default                                  : Yes
Forced                                   : No

Audio #2
ID                                       : 3
Format                                   : DTS
Format/Info                              : Digital Theater Systems
Mode                                     : 16
Format settings, Endianness              : Big
Codec ID                                 : A_DTS
Duration                                 : 1h 31mn
Bit rate mode                            : Constant
Bit rate                                 : 768 Kbps
Channel(s)                               : 2 channels
Channel positions                        : Front: L R
Sampling rate                            : 48.0 KHz
Bit depth                                : 24 bits
Compression mode                         : Lossy
Stream size                              : 501 MiB (12%)
Language                                 : English
Default                                  : No
Forced                                   : No


Download:
Share Online Share OnlineShare OnlineShare Online
 

Kommentare