Filecrypt zeigt vereinzelt Files als "n/a". Die Downloads sind trotzdem komplett.

DNS SERVER AENDERNum der staatlichen Zensur zu umgehen. Sollten wir von eurem Provider geseprrt werden, nutzt den TOR BROWSER oder ändert euren DNS SERVER.

Filmwünsche können bei uns im Forum abgegeben werden

Wir Speichern Nicht




 
 
 
Top Releases
Sicario.2.Soldado.2018.Germa...
Sicario.2.Soldado.2018.Germa...
Ein.Kind.zur.Zeit.German.DL....
Ein.Kind.zur.Zeit.German.DL....
Backstabbing.for.Beginners.2...
Backstabbing.for.Beginners.2...
Jim.Knopf.und.Lukas.der.Loko...
Jim.Knopf.und.Lukas.der.Loko...
Sicario.2.Soldado.2018.MULTi...
Backstabbing.for.Beginners.2...

Cinedubs
The.Happytime.Murders.Kein.S...
The.Happytime.Murders.Kein.S...
Peppermint.Angel.of.Vengeanc...
Peppermint.Angel.of.Vengeanc...
The.Nun.German.AC3D.DL.1080p...
Christopher.Robin.German.DL....
Christopher.Robin.German.DL....
A.Star.Is.Born.German.DL.AC3...
A.Star.Is.Born.German.DL.AC3...
Mission.Impossible.Fallout.G...

Neuerscheinungen 2017-18
Squirm.1976.MULTi.COMPLETE.B...
Strasse.der.Gewalt.White.Lin...
Darkman.II.The.Return.Of.Dur...
Spuk.von.draussen.1987.GERMA...
Darkman.III.Die.Darkman.Die....
Darkman.III.Das.Experiment.G...
Future.World.2018.GERMAN.DL....
Future.World.2018.GERMAN.720...
Collateral.Terror.Battle.for...
Arbor.Men.Eine.daemonische.L...

XXX
Phat.Black.Ass.Worship.XXX.1...
Phat.Black.Ass.Worship.XXX.7...
GirlFap.E66.Chrissy.Playing....
CastingFrancais.18.11.19.Kat...
ConorCoxxx.17.11.17.Charlee....
FTVMilfs.18.11.20.Silvia.Sai...
FoxxedUp.18.11.13.Cristi.Ann...
FirstAnalQuest.18.11.18.Hann...
Cosmid.18.11.19.Emma.Rae.Ste...
DaneJones.18.11.20.Sasha.Col...
Do.Me.Any.Way.You.Wanna.XXX....
FitnessRooms.18.11.19.Nicole...
ConorCoxxx.17.11.03.Emmy.Lyn...
ClubSeventeen.18.11.19.Lena....
DigitalPlayground.18.11.19.D...
FakeDrivingSchool.18.11.19.R...
ConorCoxxx.17.11.10.Kimmy.Le...
DateSlam.18.11.19.Fang.Shave...
GirlFap.E65.Kali.Kavalli.Bus...
GirlFap.E64.Baily.Private.Co...

3D
The.Art.of.Flight.3D.2011.Ge...
The.End.Of.The.World.3D.2010...
The.First.Avenger.Civil.War....
Die.Unglaublichen.2.2018.3D....
Skyscraper.3D.2018.MULTi.COM...
Ant-Man.And.The.Wasp.3D.2018...
Ant.Man.and.the.Wasp.3D.2018...
Die.Unglaublichen.2.3D.2018....
Die.Unglaublichen.2.2018.3D....
Die.Unglaublichen.2.2018.3D....
Sharknado.6.The.Last.One.3D....
Deep.Kleine.Helden.der.Tiefs...
Deep.3D.2017.MULTI.COMPLETE....
Detective.Dee.und.die.Legend...
Detective.Dee.und.die.Legend...

Old_Stuff
Dunkirk.1958.COMPLETE.BLURAY...
Das.Wunder.von.Manhattan.199...
The.Amazing.Spiderman.2.Rise...
Rise.of.the.Predator.2014.Ge...
Detective.Dee.und.das.Geheim...
Detective.Dee.Und.Der.Fluch....
Ghost.Rider.Spirit.of.Vengea...
Species.IV.Das.Erwachen.2007...
Species.IV.Das.Erwachen.2007...
Hotel.Transsilvanien.2012.Ge...
The.Dead.2010.German.DL.1080...
The.Dead.2.India.2013.German...
Britney.Spears.Live.The.Femm...
Buffy.The.Vampire.Slayer.199...
IMAX.Ride.Around.The.World.2...

Filme
Black.Panther.2018.German.DL...
Anaconda.German.1997.1080p.B...
Anaconda.Offspring.2008.Germ...
Elle.2016.German.1080p.BluRa...
Anchorman.Die.Legende.von.Ro...
And.Soon.the.Darkness.2010.G...
And.Then.Came.Lola.2009.Germ...
American.Violence.2017.Germa...
Jim.Knopf.und.Lukas.der.Loko...
Modern.Family.S09.GERMAN.DUB...
Modern.Family.S09.GERMAN.DUB...
American.Horror.Story.S08.GE...
American.Horror.Story.S08.GE...
Ray.Donovan.S06.GERMAN.DUBBE...
American.Violet.2008.German....
American.Virgin.2009.German....
American.Warships.2012.Germa...
American.Werewolf.1981.Germa...
Amerikanische.Freundinnen.19...
Amityville.Horror.Eine.wahre...
Amour.Fou.2014.German.1080p....
Amphibious.Creature.of.the.D...
Amsterdam.Heavy.2011.German....
Assassins.Bullet.2012.German...

 
 
Anaconda.Offspring.2008.German.1080p.HDTV.x264-TiPToP

Jahr: 2008
Genre: Action, Horror
Sprache: Deutsch AC3
Laufzeit: 1h 24mn
Bitrate: 6 409 Kbps
Format: MKV
Größe: 3.79 GiB
Release:

Beschreibung:

Einer Gruppe skrupelloser Wissenschaftler und Jäger in Diensten des Unternehmers Murdoch ist es gelungen, eine jener gefährlichen Monsteranakondas vom Urwald Brasiliens in ein Labor auf Amerikas grüner Wiese zu verfrachten, um dort einen Jungbrunnen aus ihren Zellen zu destillieren. Prompt macht sich das Mörderreptil selbständig, entkommt in die Natur und bedroht die Einwohner der Umgebung. Ein Team unter Leitung des kriminellen Großwildjägers Hammett soll es erledigen, bevor es sich am Ende noch vermehrt.



Complete name                            : a3o-1080p-tiptop.mkv
Format                                   : Matroska
Format version                           : Version 4 / Version 2
File size                                : 3.79 GiB
Duration                                 : 1h 24mn
Overall bit rate                         : 6 409 Kbps
Encoded date                             : UTC 2016-10-04 18:18:12
Writing application                      : mkvmerge v9.4.2 ('So High') 64bit
Writing library                          : libebml v1.3.4 + libmatroska v1.4.5
DURATION                                 : 01:24:35.040000000
NUMBER_OF_FRAMES                         : 158595
NUMBER_OF_BYTES                          : 243601920
_STATISTICS_WRITING_APP                  : mkvmerge v9.4.2 ('So High') 64bit
_STATISTICS_WRITING_DATE_UTC             : 2016-10-04 18:18:12
_STATISTICS_TAGS                         : BPS DURATION NUMBER_OF_FRAMES NUMBER_OF_BYTES

Video
ID                                       : 1
Format                                   : AVC
Format/Info                              : Advanced Video Codec
Format profile                           : High@L4.1
Format settings, CABAC                   : Yes
Format settings, ReFrames                : 4 frames
Codec ID                                 : V_MPEG4/ISO/AVC
Duration                                 : 1h 24mn
Bit rate                                 : 5 897 Kbps
Width                                    : 1 920 pixels
Height                                   : 1 080 pixels
Display aspect ratio                     : 16:9
Frame rate mode                          : Constant
Frame rate                               : 25.000 fps
Color space                              : YUV
Chroma subsampling                       : 4:2:0
Bit depth                                : 8 bits
Scan type                                : Progressive
Bits/(Pixel*Frame)                       : 0.114
Stream size                              : 3.48 GiB (92%)
Title                                    : a3o-1080p-tiptop
Writing library                          : x264 core 148 r2721 72d53ab
Encoding settings                        : cabac=1 / ref=4 / deblock=1:0:0 / analyse=0x3:0x113 / me=umh / subme=7 / psy=1 / psy_rd=1.00:0.00 / mixed_ref=1 / me_range=16 / chroma_me=1 / trellis=1 / 8x8dct=1 / cqm=0 / deadzone=21,11 / fast_pskip=0 / chroma_qp_offset=-2 / threads=12 / lookahead_threads=2 / sliced_threads=0 / nr=0 / decimate=1 / interlaced=0 / bluray_compat=0 / constrained_intra=0 / bframes=3 / b_pyramid=2 / b_adapt=1 / b_bias=0 / direct=1 / weightb=1 / open_gop=0 / weightp=2 / keyint=250 / keyint_min=25 / scenecut=40 / intra_refresh=0 / rc_lookahead=40 / rc=crf / mbtree=1 / crf=20.0 / qcomp=0.60 / qpmin=0 / qpmax=69 / qpstep=4 / ip_ratio=1.40 / aq=1:1.00
Default                                  : Yes
Forced                                   : No
DURATION                                 : 01:24:34.920000000
NUMBER_OF_FRAMES                         : 126873
NUMBER_OF_BYTES                          : 3820629236
_STATISTICS_WRITING_APP                  : mkvmerge v9.4.2 ('So High') 64bit
_STATISTICS_WRITING_DATE_UTC             : 2016-10-04 18:18:12
_STATISTICS_TAGS                         : BPS DURATION NUMBER_OF_FRAMES NUMBER_OF_BYTES

Audio
ID                                       : 2
Format                                   : AC-3
Format/Info                              : Audio Coding 3
Mode extension                           : CM (complete main)
Format settings, Endianness              : Big
Codec ID                                 : A_AC3
Duration                                 : 1h 24mn
Bit rate mode                            : Constant
Bit rate                                 : 384 Kbps
Channel(s)                               : 6 channels
Channel positions                        : Front: L C R, Side: L R, LFE
Sampling rate                            : 48.0 KHz
Bit depth                                : 16 bits
Compression mode                         : Lossy
Stream size                              : 232 MiB (6%)
Language                                 : German
Default                                  : Yes
Forced                                   : No


Download:
Share Online Share OnlineShare OnlineShare Online
 

Kommentare