HD-AREA wünscht Euch eine besinnliche Weihnachtszeit ;)

DNS SERVER AENDERNum der staatlichen Zensur zu umgehen. Sollten wir von eurem Provider geseprrt werden, nutzt den TOR BROWSER oder ändert euren DNS SERVER.

Filmwünsche können bei uns im Forum abgegeben werden

Wir Speichern Nicht




 
 
 
Top Releases
The.Happy.Prince.2018.German...
The.Happy.Prince.2018.German...
Johnny.English.Man.lebt.nur....
Johnny.English.Man.lebt.nur....
The.Happy.Prince.2018.MULTi....
Von.Loewen.und.Laemmern.2007...
The.Hateful.8.2015.German.AC...
Der.Unsichtbare.Gast.2016.Ge...
BlacKkKlansman.2018.German.A...
Von.Loewen.und.Laemmern.2007...

Cinedubs
Johnny.English.Man.lebt.nur....
Johnny.English.Man.lebt.nur....
Johnny.English.Man.lebt.nur....
Phantastische.Tierwesen.Grin...
Phantastische.Tierwesen.Grin...
The.Guilty.2018.German.AC3D....
The.Guilty.2018.German.AC3D....
Aufbruch.zum.Mond.German.DL....
Aufbruch.zum.Mond.German.DL....
Night.School.2018.GERMAN.DL....

Neuerscheinungen 2017-18
Ultimate.Justice.Toeten.oder...
Spinning.Man.Im.Dunkel.deine...
The.Crying.Game.1992.MULTi.C...
Amores.Perros.2000.MULTi.COM...
Ein.Dorf.zieht.blank.German....
Ein.Dorf.zieht.blank.German....
Slender.Man.German.DL.720p.B...
Slender.Man.German.DL.1080p....
Monster.Hunt.2.2018.GERMAN.1...
Monster.Hunt.2.2018.GERMAN.7...

XXX
LaurenPhillips.17.06.23.Sexy...
MetArtX.18.12.10.Lee.Anne.Li...
KarupsHA.18.12.10.Scarlett.S...
Kemaco.49.XXX.1080p.WEBRip.M...
NHLPCentral.18.12.12.Kiana.K...
JaysPOV.18.12.10.Scarlett.Bl...
MetArtX.18.12.12.Lisa.Dawn.A...
MilfsLikeItBig.18.12.12.Ryan...
KarupsPC.18.12.12.Mary.Monro...
MyFriendsHotMom.18.12.11.Amb...
InTheCrack.E1479.Naomi.Benne...
LadyVoyeurs.18.12.12.Roxee.C...
JulesJordan.18.12.12.Monique...
MomsTeachSex.18.12.12.Christ...
MySistersHotFriend.18.10.12....
LaSublimeXXX.18.03.16.Lady.D...
NewSensations.18.12.10.Luna....
LaurenPhillips.17.06.30.Jay....
MomsLickTeens.18.12.12.Angel...
Ninki.Cosplayer.Mitsurugi.Me...

3D
Meg.3D.2018.MULTi.COMPLETE.B...
Meg.3D.2018.German.DL.1080p....
Gans.im.Glueck.3D.2018.MULTi...
The.Art.of.Flight.3D.2011.Ge...
The.End.Of.The.World.3D.2010...
The.First.Avenger.Civil.War....
Die.Unglaublichen.2.2018.3D....
Skyscraper.3D.2018.MULTi.COM...
Ant-Man.And.The.Wasp.3D.2018...
Ant.Man.and.the.Wasp.3D.2018...
Die.Unglaublichen.2.3D.2018....
Die.Unglaublichen.2.2018.3D....
Die.Unglaublichen.2.2018.3D....
Sharknado.6.The.Last.One.3D....
Deep.Kleine.Helden.der.Tiefs...

Old_Stuff
Akte.X.S05.German.DTS.DL.108...
Akte.X.S04.German.DTS.DL.108...
Akte.X.S03.German.DTS.DL.108...
Dunkirk.1958.COMPLETE.BLURAY...
Das.Wunder.von.Manhattan.199...
The.Amazing.Spiderman.2.Rise...
Rise.of.the.Predator.2014.Ge...
Detective.Dee.und.das.Geheim...
Detective.Dee.Und.Der.Fluch....
Ghost.Rider.Spirit.of.Vengea...
Species.IV.Das.Erwachen.2007...
Species.IV.Das.Erwachen.2007...
Hotel.Transsilvanien.2012.Ge...
The.Dead.2010.German.DL.1080...
The.Dead.2.India.2013.German...

Filme
Richard.Hasenfuss.2008.Germa...
Ride.Wenn.Spass.in.Wellen.ko...
Reykjavik.Whale.Watching.Mas...
Richard.the.Lionheart.Der.Ko...
Riddle.Jede.Stadt.hat.ihr.to...
Ballad.in.Blood.2016.German....
Swedish.Dicks.S02.German.DD2...
The.Good.Doctor.S02.German.D...
The.Good.Doctor.S02.German.D...
Vikings.S05.German.DD+51.DL....
Slender.Man.2018.German.DTS....
Snatch.S02.COMPLETE.German.D...
Rise.of.a.Warrior.2016.Germa...
Snatch.S02.COMPLETE.German.D...
Der.Tatortreiniger.S07.COMPL...
In.the.Mood.for.Love.2000.Ge...
Invasion.Day.2013.German.DL....
Rio.fuer.Anfaenger.2010.Germ...
Blue.Crush.2002.German.1080p...
Schindlers.Liste.1993.German...
Backstabbing.for.Beginners.2...
Sein.Colt.war.schneller.1958...
The.Miracle.Season.Ihr.groes...
Revenge.Sympathy.for.the.Dev...

 
 
Ultimate.Justice.Toeten.oder.getoetet.werden.2017.German.DTS.1080p.BluRay.x265-UNFIrED

Jahr: 2017
Genre: Action
Sprache: Deutsch DTS
Laufzeit: 1h 36mn
Bitrate: 3 604 Kbps
Format: MKV
Größe: 2.42 GiB
Release:

Beschreibung:

Freundschaft kennt keine Grenzen: Um Rache für einen alten Freund und dessen Familie zu nehmen, stellt der ehemalige Elite-Soldat Gus seine Kampfkunst noch einmal unter Beweis und begibt sich in eine lebensbedrohliche Situation.



Complete name                            : unfired-ultimatejustice-x265.mkv
Format                                   : Matroska
Format version                           : Version 2
File size                                : 2.42 GiB
Duration                                 : 1h 36mn
Overall bit rate                         : 3 604 Kbps
Encoded date                             : UTC 2018-12-18 15:36:04
Writing application                      : mkvmerge v24.0.0 ('Beyond The Pale') 64-bit
Writing library                          : libebml v1.3.6 + libmatroska v1.4.9
DURATION                                 : 01:36:19.030000000
NUMBER_OF_FRAMES                         : 541784
NUMBER_OF_BYTES                          : 1090069408
_STATISTICS_WRITING_APP                  : mkvmerge v24.0.0 ('Beyond The Pale') 64-bit
_STATISTICS_WRITING_DATE_UTC             : 2018-12-18 15:36:04
_STATISTICS_TAGS                         : BPS DURATION NUMBER_OF_FRAMES NUMBER_OF_BYTES

Video
ID                                       : 1
Format                                   : HEVC
Format/Info                              : High Efficiency Video Coding
Format profile                           : Main@L4.0
Codec ID                                 : V_MPEGH/ISO/HEVC
Duration                                 : 1h 36mn
Bit rate                                 : 2 023 Kbps
Width                                    : 1 920 pixels
Height                                   : 808 pixels
Display aspect ratio                     : 2.40:1
Frame rate mode                          : Constant
Frame rate                               : 25.000 fps
Color space                              : YUV
Chroma subsampling                       : 4:2:0
Bit depth                                : 8 bits
Bits/(Pixel*Frame)                       : 0.052
Stream size                              : 1.36 GiB (56%)
Writing library                          : x265 2.8+1-478bfe2b7673:[Windows][GCC 7.3.0][64 bit] 8bit+10bit+12bit
Encoding settings                        : cpuid=1111039 / frame-threads=16 / numa-pools=16 / wpp / no-pmode / no-pme / no-psnr / no-ssim / log-level=2 / input-csp=1 / input-res=1920x808 / interlace=0 / total-frames=144465 / level-idc=0 / high-tier=1 / uhd-bd=0 / ref=4 / no-allow-non-conformance / no-repeat-headers / annexb / no-aud / no-hrd / info / hash=0 / no-temporal-layers / open-gop / min-keyint=25 / keyint=250 / gop-lookahead=0 / bframes=4 / b-adapt=2 / b-pyramid / bframe-bias=0 / rc-lookahead=25 / lookahead-slices=4 / scenecut=40 / radl=0 / no-intra-refresh / ctu=64 / min-cu-size=8 / rect / no-amp / max-tu-size=32 / tu-inter-depth=1 / tu-intra-depth=1 / limit-tu=0 / rdoq-level=2 / dynamic-rd=0.00 / no-ssim-rd / signhide / no-tskip / nr-intra=0 / nr-inter=0 / no-constrained-intra / strong-intra-smoothing / max-merge=3 / limit-refs=3 / limit-modes / me=3 / subme=3 / merange=57 / temporal-mvp / weightp / no-weightb / no-analyze-src-pics / deblock=0:0 / sao / no-sao-non-deblock / rd=4 / no-early-skip / rskip / no-fast-intra / no-tskip-fast / no-cu-lossless / no-b-intra / no-splitrd-skip / rdpenalty=0 / psy-rd=2.00 / psy-rdoq=1.00 / no-rd-refine / no-lossless / cbqpoffs=0 / crqpoffs=0 / rc=crf / crf=19.9 / qcomp=0.60 / qpstep=4 / stats-write=0 / stats-read=0 / ipratio=1.40 / pbratio=1.30 / aq-mode=1 / aq-strength=1.00 / cutree / zone-count=0 / no-strict-cbr / qg-size=32 / no-rc-grain / qpmax=69 / qpmin=0 / no-const-vbv / sar=1 / overscan=0 / videoformat=5 / range=0 / colorprim=2 / transfer=2 / colormatrix=2 / chromaloc=0 / display-window=0 / max-cll=0,0 / min-luma=0 / max-luma=255 / log2-max-poc-lsb=8 / vui-timing-info / vui-hrd-info / slices=1 / no-opt-qp-pps / no-opt-ref-list-length-pps / no-multi-pass-opt-rps / scenecut-bias=0.05 / no-opt-cu-delta-qp / no-aq-motion / no-hdr / no-hdr-opt / no-dhdr10-opt / no-idr-recovery-sei / analysis-reuse-level=5 / scale-factor=0 / refine-intra=0 / refine-inter=0 / refine-mv=0 / no-limit-sao / ctu-info=0 / no-lowpass-dct / refine-mv-type=0 / copy-pic=1 / max-ausize-factor=1.0 / no-dynamic-refine / no-single-sei
Default                                  : Yes
Forced                                   : No

Audio
ID                                       : 2
Format                                   : DTS
Format/Info                              : Digital Theater Systems
Mode                                     : 16
Format settings, Endianness              : Big
Codec ID                                 : A_DTS
Duration                                 : 1h 36mn
Bit rate mode                            : Constant
Bit rate                                 : 1 509 Kbps
Channel(s)                               : 6 channels
Channel positions                        : Front: L C R, Side: L R, LFE
Sampling rate                            : 48.0 KHz
Bit depth                                : 24 bits
Compression mode                         : Lossy
Stream size                              : 1.02 GiB (42%)
Language                                 : German
Default                                  : Yes
Forced                                   : No


Download:
Share Online Share OnlineShare OnlineShare Online
 

Kommentare