HD-AREA wünscht Euch eine besinnliche Weihnachtszeit ;)

DNS SERVER AENDERNum der staatlichen Zensur zu umgehen. Sollten wir von eurem Provider geseprrt werden, nutzt den TOR BROWSER oder ändert euren DNS SERVER.

Filmwünsche können bei uns im Forum abgegeben werden

Wir Speichern Nicht




 
 
 
Top Releases
Smallfoot.Ein.eisigartiges.A...
Smallfoot.Ein.eisigartiges.A...
Smallfoot.Ein.eisigartiges.A...
Hubert.und.Staller.Eine.scho...
Hubert.und.Staller.Eine.scho...
Hubert.und.Staller.Eine.scho...
Bird.Box.Schliesse.deine.Aug...
Bird.Box.Schliesse.deine.Aug...
Halloween.German.DL.AC3.Dubb...
Halloween.German.DL.AC3.Dubb...

Cinedubs
Aquaman.2018.GERMAN.AC3.MD.7...
Bad.Spies.German.DL.AC3.Dubb...
Bad.Spies.German.DL.AC3.Dubb...
Bad.Times.at.the.El.Royale.G...
Bad.Times.at.the.El.Royale.G...
The.Guilty.German.DL.AC3.Dub...
The.Guilty.German.DL.AC3.Dub...
Johnny.English.Man.lebt.nur....
Johnny.English.Man.lebt.nur....
Johnny.English.Man.lebt.nur....

Neuerscheinungen 2017-18
The.Untold.Story.1993.DUAL.C...
The.Untold.Story.GERMAN.1993...
Wildling.2018.DUAL.COMPLETE....
They.Came.Together.2014.Germ...
Spinning.Man.Im.Dunkel.deine...
Amores.perros.2000.German.10...
Predator.Upgrade.2018.German...
Predator.Upgrade.2018.German...
Wilde.Kraeuter.2018.German.1...
Wilde.Kraeuter.2018.German.7...

XXX
Private.18.12.11.Lilu.Moon.A...
LethalHardcore.Sperm.Filled....
ProducersFun.18.08.10.Natash...
LaurenPhillips.17.10.06.Carm...
NuruMassage.18.12.12.Gianna....
ProducersFun.18.08.24.Shae.C...
Private.Movies.36.Scent.Of.A...
LaurenPhillips.17.10.27.Deep...
Only-Opaques.17.08.19.Alexa....
TeensLikeItBig.18.12.03.Jane...
NubileFilms.18.12.10.Mindy.A...
Nubiles.18.12.12.Laura.Angel...
TheLifeErotic.18.12.11.Gabri...
TheRealWorkout.18.12.09.Lala...
SugarCookie.18.11.30.Lindsey...
TakeVan.18.12.10.Phoenix.Mon...
ProducersFun.18.08.19.Ashly....
OldYoungLesbianLove.18.12.10...
SugarDaddyPORN.18.12.10.Pipe...
Nympho.18.12.11.Nia.Nacci.XX...

3D
Smallfoot.3D.2018.COMPLETE.B...
Smallfoot.Ein.eisigartiges.A...
Skyscraper.3D.2018.German.DL...
Meg.3D.2018.MULTi.COMPLETE.B...
Meg.3D.2018.German.DL.1080p....
Gans.im.Glueck.3D.2018.MULTi...
The.Art.of.Flight.3D.2011.Ge...
The.End.Of.The.World.3D.2010...
The.First.Avenger.Civil.War....
Die.Unglaublichen.2.2018.3D....
Skyscraper.3D.2018.MULTi.COM...
Ant-Man.And.The.Wasp.3D.2018...
Ant.Man.and.the.Wasp.3D.2018...
Die.Unglaublichen.2.3D.2018....
Die.Unglaublichen.2.2018.3D....

Old_Stuff
Akte.X.S05.German.DTS.DL.108...
Akte.X.S04.German.DTS.DL.108...
Akte.X.S03.German.DTS.DL.108...
Dunkirk.1958.COMPLETE.BLURAY...
Das.Wunder.von.Manhattan.199...
The.Amazing.Spiderman.2.Rise...
Rise.of.the.Predator.2014.Ge...
Detective.Dee.und.das.Geheim...
Detective.Dee.Und.Der.Fluch....
Ghost.Rider.Spirit.of.Vengea...
Species.IV.Das.Erwachen.2007...
Species.IV.Das.Erwachen.2007...
Hotel.Transsilvanien.2012.Ge...
The.Dead.2010.German.DL.1080...
The.Dead.2.India.2013.German...

Filme
Es.ist.ein.Elch.entsprungen....
Santa.Clause.3.Eine.frostige...
Monster.Hunt.2015.German.AC3...
Saint.Laurent.2014.German.10...
Saints.and.Soldiers.2003.Ger...
Saints.and.Soldiers.III.Batt...
Saiten.des.Lebens.2012.Germa...
Inside.Man.2006.German.DL.10...
S.W.A.T.Firefight.2011.Germa...
Charles.Dickens.Eine.Weihnac...
Sadistico.1971.German.DL.108...
Sacrifice.2011.German.DL.108...
Sabotage.Dark.Assassin.UNCUT...
Wo.die.Liebe.hinfaellt.1935....
Safari.2009.German.1080p.Blu...
Surrogates.Mein.zweites.Ich....
The.Cooler.2003.German.AC3D....
Sag.kein.Wort.2001.German.DL...
S.H.I.T.Die.Highschool.GmbH....
Safari.2013.German.DL.1080p....
Wintermaerchen.1992.German.A...
The.Nun.2018.German.DL.1080p...
Sag.nicht.wer.du.bist.2013.G...
Versprochen.ist.versprochen....

 
 
Es.ist.ein.Elch.entsprungen.2005.GERMAN.DL.1080p.HDTV.x264-TMSF

Jahr: 2005
Genre: X-Mas
Sprache: Deutsch AC3 | Englisch AC3
Laufzeit: 1h 27mn
Bitrate: 5 575 Kbps
Format: MKV
Größe: 3.39 GiB
Release:

Beschreibung:

Was würden Sie tun, wenn ein ausgewachsener Elch durchs Dach kracht und mitten im Wohnzimmer landet? Ein Elch der sprechen kann, auf den Namen Mr. Moose hört und steif und fest behauptet, er habe bei einem Testflug mit dem Weihnachtsmann die Kontrolle über den Schlitten verloren. Bertil, der mit seiner Mutter und seiner Schwester auf dem Land lebt, ist davon jedenfalls begeistert – auch wenn er schon lange nicht mehr an den Weihnachtsmann glaubt. Endlich hat er einen Freund, mit dem er verrückte Sachen anstellen kann, der ihn beschützt – und vor allem: der ihn versteht. Wäre da nicht der schmierige Vermieter Pannecke, der seine große Chance wittert, endlich mal einen Elch zu jagen! Zu allem Überfluss steht auch noch der Weihnachtsmann vor der Tür und möchte Mr. Moose wieder zurück haben. Schließlich ist bald Heilig Abend, und dieses Jahr soll der Elch den Schlitten ziehen! Was soll Bertil nur tun?



Complete name                            : tmsf-esisteinelchentsprungen-1080p.mkv
Format                                   : Matroska
Format version                           : Version 4 / Version 2
File size                                : 3.39 GiB
Duration                                 : 1h 27mn
Overall bit rate                         : 5 575 Kbps
Encoded date                             : UTC 2018-12-23T12:02:30Z
Writing application                      : HandBrake 1.1.2 2018090500
Writing library                          : Lavf57.7.2

Video
ID                                       : 1
Format                                   : AVC
Format/Info                              : Advanced Video Codec
Format profile                           : High@L4.1
Format settings, CABAC                   : Yes
Format settings, ReFrames                : 5 frames
Codec ID                                 : V_MPEG4/ISO/AVC
Duration                                 : 1h 27mn
Bit rate                                 : 4 696 Kbps
Width                                    : 1 920 pixels
Height                                   : 1 080 pixels
Display aspect ratio                     : 16:9
Frame rate mode                          : Constant
Frame rate                               : 25.000 fps
Color space                              : YUV
Chroma subsampling                       : 4:2:0
Bit depth                                : 8 bits
Scan type                                : Progressive
Bits/(Pixel*Frame)                       : 0.091
Stream size                              : 2.86 GiB (84%)
Writing library                          : x264 core 155 r2901 7d0ff22
Encoding settings                        : cabac=1 / ref=5 / deblock=1:-3:-3 / analyse=0x3:0x113 / me=umh / subme=7 / psy=1 / psy_rd=1.00:0.00 / mixed_ref=1 / me_range=16 / chroma_me=1 / trellis=1 / 8x8dct=1 / cqm=0 / deadzone=21,11 / fast_pskip=1 / chroma_qp_offset=-2 / threads=12 / lookahead_threads=2 / sliced_threads=0 / nr=0 / decimate=1 / interlaced=0 / bluray_compat=0 / constrained_intra=0 / bframes=3 / b_pyramid=2 / b_adapt=2 / b_bias=0 / direct=3 / weightb=1 / open_gop=0 / weightp=2 / keyint=250 / keyint_min=25 / scenecut=40 / intra_refresh=0 / rc_lookahead=50 / rc=crf / mbtree=1 / crf=20.0 / qcomp=0.60 / qpmin=0 / qpmax=69 / qpstep=4 / vbv_maxrate=62500 / vbv_bufsize=78125 / crf_max=0.0 / nal_hrd=none / filler=0 / ip_ratio=1.40 / aq=1:1.00
Default                                  : Yes
Forced                                   : No
Color primaries                          : BT.709
Transfer characteristics                 : BT.709
Matrix coefficients                      : BT.709

Audio #1
ID                                       : 2
Format                                   : AC-3
Format/Info                              : Audio Coding 3
Mode extension                           : CM (complete main)
Format settings, Endianness              : Big
Codec ID                                 : A_AC3
Duration                                 : 1h 27mn
Bit rate mode                            : Constant
Bit rate                                 : 384 Kbps
Channel(s)                               : 2 channels
Channel positions                        : Front: L R
Sampling rate                            : 48.0 KHz
Bit depth                                : 16 bits
Compression mode                         : Lossy
Stream size                              : 239 MiB (7%)
Title                                    : Stereo
Language                                 : German
Default                                  : Yes
Forced                                   : No

Audio #2
ID                                       : 3
Format                                   : AC-3
Format/Info                              : Audio Coding 3
Mode extension                           : CM (complete main)
Format settings, Endianness              : Big
Codec ID                                 : A_AC3
Duration                                 : 1h 27mn
Bit rate mode                            : Constant
Bit rate                                 : 384 Kbps
Channel(s)                               : 2 channels
Channel positions                        : Front: L R
Sampling rate                            : 48.0 KHz
Bit depth                                : 16 bits
Compression mode                         : Lossy
Stream size                              : 239 MiB (7%)
Title                                    : Stereo
Language                                 : English
Default                                  : No
Forced                                   : No


Download:
Share Online Share OnlineShare OnlineShare Online
 

Kommentare