HD-AREA wünscht Euch eine besinnliche Weihnachtszeit ;)

DNS SERVER AENDERNum der staatlichen Zensur zu umgehen. Sollten wir von eurem Provider geseprrt werden, nutzt den TOR BROWSER oder ändert euren DNS SERVER.

Filmwünsche können bei uns im Forum abgegeben werden

Wir Speichern Nicht




 
 
 
Top Releases
The.Happy.Prince.2018.German...
Espen.und.die.Legende.vom.Be...
Smallfoot.Ein.eisigartiges.A...
Smallfoot.Ein.eisigartiges.A...
Smallfoot.Ein.eisigartiges.A...
Hubert.und.Staller.Eine.scho...
Hubert.und.Staller.Eine.scho...
Hubert.und.Staller.Eine.scho...
Bird.Box.Schliesse.deine.Aug...
Bird.Box.Schliesse.deine.Aug...

Cinedubs
Bad.Times.at.the.El.Royale.2...
Bad.Spies.2018.German.DL.AC3...
Aquaman.2018.GERMAN.AC3.MD.7...
Bad.Spies.German.DL.AC3.Dubb...
Bad.Spies.German.DL.AC3.Dubb...
Bad.Times.at.the.El.Royale.G...
Bad.Times.at.the.El.Royale.G...
The.Guilty.German.DL.AC3.Dub...
The.Guilty.German.DL.AC3.Dub...
Johnny.English.Man.lebt.nur....

Neuerscheinungen 2017-18
Mannequin.1987.DUAL.COMPLETE...
Monster.Hunt.2.2018.German.A...
The.Untold.Story.1993.DUAL.C...
The.Untold.Story.GERMAN.1993...
Wildling.2018.DUAL.COMPLETE....
They.Came.Together.2014.Germ...
Spinning.Man.Im.Dunkel.deine...
Amores.perros.2000.German.10...
Predator.Upgrade.2018.German...
Predator.Upgrade.2018.German...

XXX
Whos.Your.Mama.12.XXX.1080p....
Vixen.18.12.10.Alexa.Grace.A...
Tushy.18.12.12.Ella.Nova.And...
ProducersFun.18.10.13.Molly....
WildOnCam.18.11.26.Kayla.Par...
WickedPictures.I.Know.Youre....
WhenGirlsPlay.18.12.10.Jilli...
VIPissy.18.12.10.Licky.Lex.A...
TrickyOldTeacher.18.12.10.Me...
ProducersFun.18.09.23.Gia.Lo...
ThisGirlSucks.18.12.12.Kyler...
WickedPictures.He.Loves.Me.I...
ProducersFun.18.09.19.Jill.K...
WankItNow.18.12.12.Georgie.L...
TushyRaw.18.12.10.Karla.Kush...
WickedPictures.He.Loves.Me.I...
WankItNow.18.12.12.Jess.West...
Whos.Your.Mama.23.XXX.1080p....
WildOnCam.18.12.03.Vanna.Bar...
WankItNow.18.12.10.Dolly.P.H...

3D
Smallfoot.3D.2018.COMPLETE.B...
Smallfoot.Ein.eisigartiges.A...
Skyscraper.3D.2018.German.DL...
Meg.3D.2018.MULTi.COMPLETE.B...
Meg.3D.2018.German.DL.1080p....
Gans.im.Glueck.3D.2018.MULTi...
The.Art.of.Flight.3D.2011.Ge...
The.End.Of.The.World.3D.2010...
The.First.Avenger.Civil.War....
Die.Unglaublichen.2.2018.3D....
Skyscraper.3D.2018.MULTi.COM...
Ant-Man.And.The.Wasp.3D.2018...
Ant.Man.and.the.Wasp.3D.2018...
Die.Unglaublichen.2.3D.2018....
Die.Unglaublichen.2.2018.3D....

Old_Stuff
Akte.X.S05.German.DTS.DL.108...
Akte.X.S04.German.DTS.DL.108...
Akte.X.S03.German.DTS.DL.108...
Dunkirk.1958.COMPLETE.BLURAY...
Das.Wunder.von.Manhattan.199...
The.Amazing.Spiderman.2.Rise...
Rise.of.the.Predator.2014.Ge...
Detective.Dee.und.das.Geheim...
Detective.Dee.Und.Der.Fluch....
Ghost.Rider.Spirit.of.Vengea...
Species.IV.Das.Erwachen.2007...
Species.IV.Das.Erwachen.2007...
Hotel.Transsilvanien.2012.Ge...
The.Dead.2010.German.DL.1080...
The.Dead.2.India.2013.German...

Filme
Ducktales.der.Film.Jaeger.de...
Ducktales.der.Film.Jaeger.de...
Ein frohes Fest .........
Spinning.Man.Im.Dunkel.deine...
Es.ist.ein.Elch.entsprungen....
Santa.Clause.3.Eine.frostige...
Monster.Hunt.2015.German.AC3...
Saint.Laurent.2014.German.10...
Saints.and.Soldiers.2003.Ger...
Saints.and.Soldiers.III.Batt...
Saiten.des.Lebens.2012.Germa...
Inside.Man.2006.German.DL.10...
S.W.A.T.Firefight.2011.Germa...
Charles.Dickens.Eine.Weihnac...
Sadistico.1971.German.DL.108...
Sacrifice.2011.German.DL.108...
Sabotage.Dark.Assassin.UNCUT...
Wo.die.Liebe.hinfaellt.1935....
Safari.2009.German.1080p.Blu...
Surrogates.Mein.zweites.Ich....
The.Cooler.2003.German.AC3D....
Sag.kein.Wort.2001.German.DL...
S.H.I.T.Die.Highschool.GmbH....
Safari.2013.German.DL.1080p....

 
 
Ducktales.der.Film.Jaeger.der.verlorenen.Lampe.1990.GERMAN.DUBBED.DL.720p.WebHD.x264.iNTERNAL-TVP

Jahr: 1990
Genre: Abenteuer, Zeichentrick
Sprache: Deutsch AC3 | Englisch AC3
Laufzeit: 1h 10mn
Bitrate: 6 210 Kbps
Format: MKV
Größe: 3.07 GiB
Release:

Beschreibung:

Dagobert Duck, die beliebteste und reichste Ente der Welt, ist zusammen mit seinen cleveren Großneffen Tick, Trick und Track, deren zauberhafter Freundin Webby und dem tollkühnen Bruchpiloten Quax auf der Suche nach dem größten Geheimnis des Morgenlandes – dem sagenumwobenen Schatz des Collie Baba. Doch an ihre Fersen haben sich der Zauberer Merlock und sein Gehilfe Dijon geheftet, die den Ducks den gerade gefundenen Schatz wieder entreißen. Aber wenigstens können die fünf Glücksritter aus Entenhausen die legendäre Wunderlampe von Collie Baba retten. Und jetzt beginnt mit dem plötzlich befreiten Lampengeist Genie für die Ducks das unglaublichste Abenteuer ihres Lebens…



Complete name                            : tvp-ducktalesderfilm-720p.mkv
Format                                   : Matroska
Format version                           : Version 4 / Version 2
File size                                : 3.07 GiB
Duration                                 : 1h 10mn
Overall bit rate                         : 6 210 Kbps
Movie name                               : Ducktales.der.Film.Jaeger.der.verlorenen.Lampe.1990.GERMAN.DUBBED.DL.1080p.WebHD.x264-TVP
Encoded date                             : UTC 2018-12-23T22:33:33Z
Writing application                      : HandBrake 1.1.2 2018090500
Writing library                          : Lavf57.7.2

Video
ID                                       : 1
Format                                   : AVC
Format/Info                              : Advanced Video Codec
Format profile                           : High@L4.1
Format settings, CABAC                   : Yes
Format settings, ReFrames                : 5 frames
Codec ID                                 : V_MPEG4/ISO/AVC
Duration                                 : 1h 10mn
Bit rate                                 : 5 319 Kbps
Width                                    : 1 200 pixels
Height                                   : 720 pixels
Display aspect ratio                     : 1.667
Frame rate mode                          : Constant
Frame rate                               : 25.000 fps
Color space                              : YUV
Chroma subsampling                       : 4:2:0
Bit depth                                : 8 bits
Scan type                                : Progressive
Bits/(Pixel*Frame)                       : 0.246
Stream size                              : 2.63 GiB (86%)
Writing library                          : x264 core 155 r2901 7d0ff22
Encoding settings                        : cabac=1 / ref=5 / deblock=1:-3:-3 / analyse=0x3:0x113 / me=umh / subme=7 / psy=1 / psy_rd=1.00:0.00 / mixed_ref=1 / me_range=16 / chroma_me=1 / trellis=1 / 8x8dct=1 / cqm=0 / deadzone=21,11 / fast_pskip=1 / chroma_qp_offset=-2 / threads=12 / lookahead_threads=2 / sliced_threads=0 / nr=0 / decimate=1 / interlaced=0 / bluray_compat=0 / constrained_intra=0 / bframes=3 / b_pyramid=2 / b_adapt=2 / b_bias=0 / direct=3 / weightb=1 / open_gop=0 / weightp=2 / keyint=250 / keyint_min=25 / scenecut=40 / intra_refresh=0 / rc_lookahead=50 / rc=crf / mbtree=1 / crf=20.0 / qcomp=0.60 / qpmin=0 / qpmax=69 / qpstep=4 / vbv_maxrate=62500 / vbv_bufsize=78125 / crf_max=0.0 / nal_hrd=none / filler=0 / ip_ratio=1.40 / aq=1:1.00
Default                                  : Yes
Forced                                   : No
Color primaries                          : BT.709
Transfer characteristics                 : BT.709
Matrix coefficients                      : BT.709

Audio #1
ID                                       : 2
Format                                   : AC-3
Format/Info                              : Audio Coding 3
Mode extension                           : CM (complete main)
Format settings, Endianness              : Big
Codec ID                                 : A_AC3
Duration                                 : 1h 10mn
Bit rate mode                            : Constant
Bit rate                                 : 384 Kbps
Channel(s)                               : 6 channels
Channel positions                        : Front: L C R, Side: L R, LFE
Sampling rate                            : 48.0 KHz
Bit depth                                : 16 bits
Compression mode                         : Lossy
Stream size                              : 195 MiB (6%)
Title                                    : Surround
Language                                 : German
Default                                  : Yes
Forced                                   : No

Audio #2
ID                                       : 3
Format                                   : AC-3
Format/Info                              : Audio Coding 3
Mode extension                           : CM (complete main)
Format settings, Endianness              : Big
Codec ID                                 : A_AC3
Duration                                 : 1h 10mn
Bit rate mode                            : Constant
Bit rate                                 : 384 Kbps
Channel(s)                               : 2 channels
Channel positions                        : Front: L R
Sampling rate                            : 48.0 KHz
Bit depth                                : 16 bits
Compression mode                         : Lossy
Stream size                              : 195 MiB (6%)
Title                                    : Stereo
Language                                 : English
Default                                  : No
Forced                                   : No




Download:
Share Online Share OnlineShare OnlineShare Online
 

Kommentare