HD-AREA wünscht Euch eine besinnliche Weihnachtszeit ;)

DNS SERVER AENDERNum der staatlichen Zensur zu umgehen. Sollten wir von eurem Provider geseprrt werden, nutzt den TOR BROWSER oder ändert euren DNS SERVER.

Filmwünsche können bei uns im Forum abgegeben werden

Wir Speichern Nicht




 
 
 
Top Releases
The.Happy.Prince.2018.German...
Espen.und.die.Legende.vom.Be...
Smallfoot.Ein.eisigartiges.A...
Smallfoot.Ein.eisigartiges.A...
Smallfoot.Ein.eisigartiges.A...
Hubert.und.Staller.Eine.scho...
Hubert.und.Staller.Eine.scho...
Hubert.und.Staller.Eine.scho...
Bird.Box.Schliesse.deine.Aug...
Bird.Box.Schliesse.deine.Aug...

Cinedubs
Bad.Times.at.the.El.Royale.2...
Bad.Spies.2018.German.DL.AC3...
Aquaman.2018.GERMAN.AC3.MD.7...
Bad.Spies.German.DL.AC3.Dubb...
Bad.Spies.German.DL.AC3.Dubb...
Bad.Times.at.the.El.Royale.G...
Bad.Times.at.the.El.Royale.G...
The.Guilty.German.DL.AC3.Dub...
The.Guilty.German.DL.AC3.Dub...
Johnny.English.Man.lebt.nur....

Neuerscheinungen 2017-18
The.Crying.Game.1992.German....
Mannequin.1987.DUAL.COMPLETE...
Monster.Hunt.2.2018.German.A...
The.Untold.Story.1993.DUAL.C...
The.Untold.Story.GERMAN.1993...
Wildling.2018.DUAL.COMPLETE....
They.Came.Together.2014.Germ...
Spinning.Man.Im.Dunkel.deine...
Amores.perros.2000.German.10...
Predator.Upgrade.2018.German...

XXX
Whos.Your.Mama.12.XXX.1080p....
Vixen.18.12.10.Alexa.Grace.A...
Tushy.18.12.12.Ella.Nova.And...
ProducersFun.18.10.13.Molly....
WildOnCam.18.11.26.Kayla.Par...
WickedPictures.I.Know.Youre....
WhenGirlsPlay.18.12.10.Jilli...
VIPissy.18.12.10.Licky.Lex.A...
TrickyOldTeacher.18.12.10.Me...
ProducersFun.18.09.23.Gia.Lo...
ThisGirlSucks.18.12.12.Kyler...
WickedPictures.He.Loves.Me.I...
ProducersFun.18.09.19.Jill.K...
WankItNow.18.12.12.Georgie.L...
TushyRaw.18.12.10.Karla.Kush...
WickedPictures.He.Loves.Me.I...
WankItNow.18.12.12.Jess.West...
Whos.Your.Mama.23.XXX.1080p....
WildOnCam.18.12.03.Vanna.Bar...
WankItNow.18.12.10.Dolly.P.H...

3D
Smallfoot.3D.2018.COMPLETE.B...
Smallfoot.Ein.eisigartiges.A...
Skyscraper.3D.2018.German.DL...
Meg.3D.2018.MULTi.COMPLETE.B...
Meg.3D.2018.German.DL.1080p....
Gans.im.Glueck.3D.2018.MULTi...
The.Art.of.Flight.3D.2011.Ge...
The.End.Of.The.World.3D.2010...
The.First.Avenger.Civil.War....
Die.Unglaublichen.2.2018.3D....
Skyscraper.3D.2018.MULTi.COM...
Ant-Man.And.The.Wasp.3D.2018...
Ant.Man.and.the.Wasp.3D.2018...
Die.Unglaublichen.2.3D.2018....
Die.Unglaublichen.2.2018.3D....

Old_Stuff
Akte.X.S05.German.DTS.DL.108...
Akte.X.S04.German.DTS.DL.108...
Akte.X.S03.German.DTS.DL.108...
Dunkirk.1958.COMPLETE.BLURAY...
Das.Wunder.von.Manhattan.199...
The.Amazing.Spiderman.2.Rise...
Rise.of.the.Predator.2014.Ge...
Detective.Dee.und.das.Geheim...
Detective.Dee.Und.Der.Fluch....
Ghost.Rider.Spirit.of.Vengea...
Species.IV.Das.Erwachen.2007...
Species.IV.Das.Erwachen.2007...
Hotel.Transsilvanien.2012.Ge...
The.Dead.2010.German.DL.1080...
The.Dead.2.India.2013.German...

Filme
Spaceballs.1987.German.AC3D....
My.Fair.Lady.-.50th.Annivers...
The.Avengers.2012.UNCENSORED...
The.Crying.Game.1992.German....
Ducktales.der.Film.Jaeger.de...
Ducktales.der.Film.Jaeger.de...
Ein frohes Fest .........
Spinning.Man.Im.Dunkel.deine...
Es.ist.ein.Elch.entsprungen....
Santa.Clause.3.Eine.frostige...
Monster.Hunt.2015.German.AC3...
Saint.Laurent.2014.German.10...
Saints.and.Soldiers.2003.Ger...
Saints.and.Soldiers.III.Batt...
Saiten.des.Lebens.2012.Germa...
Inside.Man.2006.German.DL.10...
S.W.A.T.Firefight.2011.Germa...
Charles.Dickens.Eine.Weihnac...
Sadistico.1971.German.DL.108...
Sacrifice.2011.German.DL.108...
Sabotage.Dark.Assassin.UNCUT...
Wo.die.Liebe.hinfaellt.1935....
Safari.2009.German.1080p.Blu...
Surrogates.Mein.zweites.Ich....

 
 
The.Crying.Game.1992.German.720p.BluRay.x264-MERRY.XMAS-iNKLUSiON

Sprache: Deutsch AC3
Laufzeit: 1h 51mn
Bitrate: 5 566 Kbps
Format: MKV
Größe: 4.35 GiB
Release:

Beschreibung:

Ein IRA-Kommando nimmt den schwarzen Soldaten Jody als Geisel, um damit einen der ihren freizupressen. Zwischen Jody und seinem Bewacher Fergus entsteht eine sehr enge Bindung. Als der Moment naht, da Fergus Jody erschießen muß, versucht dieser zu fliehen – und wird von britischen Panzern überrollt. Fergus, der mitansehen muß, wie die Engländer das Versteck dem Erdboden gleichmachen, flieht nach London. Er nimmt Kontakt mit Jodys Freundin Dil auf – ohne ihr zu verraten, daß er ihren toten Mann gekannt hat. Zwischen beiden entsteht Liebe, obwohl sich herausstellt, daß Dil in Wahrheit ein Mann ist. Doch Fergus kann auch der Vergangenheit nicht entgehen. Die IRA will ihn für ein Selbstmordkommando, aber das verhindert Dil.



Complete name                            : inkl-cryinggame-720p.mkv
Format                                   : Matroska
Format version                           : Version 4 / Version 2
File size                                : 4.35 GiB
Duration                                 : 1h 51mn
Overall bit rate                         : 5 566 Kbps
Encoded date                             : UTC 2018-12-23 05:54:01
Writing application                      : mkvmerge v24.0.0 ('Beyond The Pale') 32-bit
Writing library                          : libebml v1.3.6 + libmatroska v1.4.9
DURATION                                 : 00:00:02.412000000
NUMBER_OF_FRAMES                         : 1
NUMBER_OF_BYTES                          : 16
_STATISTICS_WRITING_APP                  : mkvmerge v24.0.0 ('Beyond The Pale') 32-bit
_STATISTICS_WRITING_DATE_UTC             : 2018-12-23 05:54:01
_STATISTICS_TAGS                         : BPS DURATION NUMBER_OF_FRAMES NUMBER_OF_BYTES

Video
ID                                       : 1
Format                                   : AVC
Format/Info                              : Advanced Video Codec
Format profile                           : High@L4.1
Format settings, CABAC                   : Yes
Format settings, ReFrames                : 5 frames
Codec ID                                 : V_MPEG4/ISO/AVC
Duration                                 : 1h 51mn
Bit rate                                 : 4 925 Kbps
Width                                    : 1 280 pixels
Height                                   : 536 pixels
Display aspect ratio                     : 2.40:1
Frame rate mode                          : Constant
Frame rate                               : 24.000 fps
Color space                              : YUV
Chroma subsampling                       : 4:2:0
Bit depth                                : 8 bits
Scan type                                : Progressive
Bits/(Pixel*Frame)                       : 0.299
Stream size                              : 3.77 GiB (87%)
Writing library                          : x264 core 157 r2935 545de2f
Encoding settings                        : cabac=1 / ref=5 / deblock=1:-1:-1 / analyse=0x3:0x113 / me=umh / subme=7 / psy=1 / psy_rd=1.00:0.00 / mixed_ref=1 / me_range=16 / chroma_me=1 / trellis=1 / 8x8dct=1 / cqm=0 / deadzone=21,11 / fast_pskip=0 / chroma_qp_offset=-2 / threads=12 / lookahead_threads=2 / sliced_threads=0 / nr=0 / decimate=1 / interlaced=0 / bluray_compat=0 / constrained_intra=0 / bframes=3 / b_pyramid=2 / b_adapt=1 / b_bias=0 / direct=3 / weightb=1 / open_gop=0 / weightp=2 / keyint=250 / keyint_min=24 / scenecut=40 / intra_refresh=0 / rc_lookahead=40 / rc=2pass / mbtree=1 / bitrate=4925 / ratetol=1.0 / qcomp=0.60 / qpmin=0 / qpmax=69 / qpstep=4 / cplxblur=20.0 / qblur=0.5 / ip_ratio=1.40 / aq=1:1.00
Default                                  : Yes
Forced                                   : No

Audio
ID                                       : 2
Format                                   : AC-3
Format/Info                              : Audio Coding 3
Mode extension                           : CM (complete main)
Format settings, Endianness              : Big
Codec ID                                 : A_AC3
Duration                                 : 1h 51mn
Bit rate mode                            : Constant
Bit rate                                 : 640 Kbps
Channel(s)                               : 2 channels
Channel positions                        : Front: L R
Sampling rate                            : 48.0 KHz
Bit depth                                : 16 bits
Compression mode                         : Lossy
Stream size                              : 513 MiB (11%)
Language                                 : German
Default                                  : Yes
Forced                                   : No

Text
ID                                       : 3
Format                                   : UTF-8
Codec ID                                 : S_TEXT/UTF8
Codec ID/Info                            : UTF-8 Plain Text
Language                                 : German
Default                                  : Yes
Forced                                   : Yes


Download:
Share Online Share OnlineShare OnlineShare Online
 

Kommentare