HD-AREA wünscht Euch eine besinnliche Weihnachtszeit ;)

DNS SERVER AENDERNum der staatlichen Zensur zu umgehen. Sollten wir von eurem Provider geseprrt werden, nutzt den TOR BROWSER oder ändert euren DNS SERVER.

Filmwünsche können bei uns im Forum abgegeben werden

Wir Speichern Nicht




 
 
 
Top Releases
Liebe.Bringt.Alles.Ins.Rolle...
Wer.war.Hitler.2017.German.A...
Liebe.Bringt.Alles.Ins.Rolle...
Liebe.Bringt.Alles.Ins.Rolle...
The.Happy.Prince.2018.German...
Espen.und.die.Legende.vom.Be...
Smallfoot.Ein.eisigartiges.A...
Smallfoot.Ein.eisigartiges.A...
Smallfoot.Ein.eisigartiges.A...
Hubert.und.Staller.Eine.scho...

Cinedubs
Bad.Times.at.the.El.Royale.2...
Bad.Spies.2018.German.DL.AC3...
Aquaman.2018.GERMAN.AC3.MD.7...
Bad.Spies.German.DL.AC3.Dubb...
Bad.Spies.German.DL.AC3.Dubb...
Bad.Times.at.the.El.Royale.G...
Bad.Times.at.the.El.Royale.G...
The.Guilty.German.DL.AC3.Dub...
The.Guilty.German.DL.AC3.Dub...
Johnny.English.Man.lebt.nur....

Neuerscheinungen 2017-18
he.Dragon.Unleashed.2019.GER...
The.Dragon.Unleashed.2019.GE...
The.Dragon.Unleashed.2019.GE...
Tales.of.Poe.2014.GERMAN.DL....
Tales.of.Poe.2014.GERMAN.MER...
Tales.of.Poe.2014.GERMAN.DL....
Kaluoka.Hina.Das.Zauberriff....
Limbradur.und.die.Magie.der....
Kaluoka.Hina.Das.Zauberriff....
Wildling.2018.German.DL.1080...

XXX
Whos.Your.Mama.12.XXX.1080p....
Vixen.18.12.10.Alexa.Grace.A...
Tushy.18.12.12.Ella.Nova.And...
ProducersFun.18.10.13.Molly....
WildOnCam.18.11.26.Kayla.Par...
WickedPictures.I.Know.Youre....
WhenGirlsPlay.18.12.10.Jilli...
VIPissy.18.12.10.Licky.Lex.A...
TrickyOldTeacher.18.12.10.Me...
ProducersFun.18.09.23.Gia.Lo...
ThisGirlSucks.18.12.12.Kyler...
WickedPictures.He.Loves.Me.I...
ProducersFun.18.09.19.Jill.K...
WankItNow.18.12.12.Georgie.L...
TushyRaw.18.12.10.Karla.Kush...
WickedPictures.He.Loves.Me.I...
WankItNow.18.12.12.Jess.West...
Whos.Your.Mama.23.XXX.1080p....
WildOnCam.18.12.03.Vanna.Bar...
WankItNow.18.12.10.Dolly.P.H...

3D
Limbradur.und.die.Magie.der....
Smallfoot.3D.2018.COMPLETE.B...
Smallfoot.Ein.eisigartiges.A...
Skyscraper.3D.2018.German.DL...
Meg.3D.2018.MULTi.COMPLETE.B...
Meg.3D.2018.German.DL.1080p....
Gans.im.Glueck.3D.2018.MULTi...
The.Art.of.Flight.3D.2011.Ge...
The.End.Of.The.World.3D.2010...
The.First.Avenger.Civil.War....
Die.Unglaublichen.2.2018.3D....
Skyscraper.3D.2018.MULTi.COM...
Ant-Man.And.The.Wasp.3D.2018...
Ant.Man.and.the.Wasp.3D.2018...
Die.Unglaublichen.2.3D.2018....

Old_Stuff
Akte.X.S05.German.DTS.DL.108...
Akte.X.S04.German.DTS.DL.108...
Akte.X.S03.German.DTS.DL.108...
Dunkirk.1958.COMPLETE.BLURAY...
Das.Wunder.von.Manhattan.199...
The.Amazing.Spiderman.2.Rise...
Rise.of.the.Predator.2014.Ge...
Detective.Dee.und.das.Geheim...
Detective.Dee.Und.Der.Fluch....
Ghost.Rider.Spirit.of.Vengea...
Species.IV.Das.Erwachen.2007...
Species.IV.Das.Erwachen.2007...
Hotel.Transsilvanien.2012.Ge...
The.Dead.2010.German.DL.1080...
The.Dead.2.India.2013.German...

Filme
Predator.Upgrade.2018.German...
Smallfoot.Ein.eisigartiges.A...
Sam.Whiskey.1969.German.DL.1...
Salz.und.Pfeffer.1968.German...
Running.Man.1987.German.REMA...
Kevin.Allein.in.New.York.199...
Ice.Age.Eine.coole.Bescherun...
Salon.Kitty.1976.German.DL.1...
Salsa.Its.Hot.1988.German.DL...
Salt.DC.German.DL.1080p.BluR...
Salvador.1986.German.DTS.108...
American.Ultra.2015.German.A...
Pauline.am.Strand.1983.Germa...
Salt.Extended.Cut.German.DL....
Sam.O.Cool.Ein.schraeger.Vog...
Naked.Weapon.2002.German.DTS...
Spaceballs.1987.German.AC3D....
My.Fair.Lady.-.50th.Annivers...
The.Avengers.2012.UNCENSORED...
The.Crying.Game.1992.German....
Ducktales.der.Film.Jaeger.de...
Ducktales.der.Film.Jaeger.de...
Ein frohes Fest .........
Spinning.Man.Im.Dunkel.deine...

 
 
Salon.Kitty.1976.German.DL.1080p.BluRay.x264-DETAiLS

Jahr: 1976
Genre: Drama
Sprache: Deutsch DTS | Englisch DTS
Laufzeit: 2h 13mn
Bitrate: 9 440 Kbps
Format: MKV
Größe: 8.79 GiB
Release:

Beschreibung:

Kitty betriebt ein Bordell im Berlin der Nazizeit, wo sich die Offiziere “entspannen” können sollen . Doch in jedem Raum wurden von dem machthungrigen Wallenberg Mikrophone installiert, mit den so gesammelten Geheiminformationen will er Hitler erpressen. Margherita, eines von Kittys Mädchen, kommt der Sache auf die Spur und will die Verschwörung aufdecken.



Complete name                            : d-skitty-1080p.mkv
Format                                   : Matroska
Format version                           : Version 2
File size                                : 8.79 GiB
Duration                                 : 2h 13mn
Overall bit rate                         : 9 440 Kbps
Movie name                               : Salon Kitty
Encoded date                             : UTC 2011-06-16 20:32:35
Writing application                      : mkvmerge v4.8.0 ('I Got The...') gebaut am May 23 2011 22:50:52
Writing library                          : libebml v1.2.0 + libmatroska v1.1.0

Video
ID                                       : 1
Format                                   : AVC
Format/Info                              : Advanced Video Codec
Format profile                           : High@L4.1
Format settings, CABAC                   : Yes
Format settings, ReFrames                : 4 frames
Codec ID                                 : V_MPEG4/ISO/AVC
Duration                                 : 2h 13mn
Bit rate                                 : 7 171 Kbps
Width                                    : 1 920 pixels
Height                                   : 1 032 pixels
Display aspect ratio                     : 1.85:1
Frame rate mode                          : Constant
Frame rate                               : 23.976 fps
Color space                              : YUV
Chroma subsampling                       : 4:2:0
Bit depth                                : 8 bits
Scan type                                : Progressive
Bits/(Pixel*Frame)                       : 0.151
Stream size                              : 6.50 GiB (74%)
Title                                    : Salon Kitty
Writing library                          : x264 core 115 r1995 c1e60b9
Encoding settings                        : cabac=1 / ref=4 / deblock=1:0:0 / analyse=0x3:0x113 / me=umh / subme=7 / psy=1 / psy_rd=1.00:0.00 / mixed_ref=1 / me_range=16 / chroma_me=1 / trellis=1 / 8x8dct=1 / cqm=0 / deadzone=21,11 / fast_pskip=0 / chroma_qp_offset=-2 / threads=12 / sliced_threads=0 / nr=0 / decimate=1 / interlaced=0 / bluray_compat=0 / constrained_intra=0 / bframes=3 / b_pyramid=2 / b_adapt=2 / b_bias=0 / direct=1 / weightb=1 / open_gop=0 / weightp=2 / keyint=250 / keyint_min=23 / scenecut=40 / intra_refresh=0 / rc_lookahead=40 / rc=2pass / mbtree=1 / bitrate=7171 / ratetol=1.0 / qcomp=0.60 / qpmin=10 / qpmax=51 / qpstep=4 / cplxblur=20.0 / qblur=0.5 / ip_ratio=1.40 / aq=1:1.00
Default                                  : Yes
Forced                                   : No

Audio #1
ID                                       : 2
Format                                   : DTS
Format/Info                              : Digital Theater Systems
Mode                                     : 16
Format settings, Endianness              : Big
Codec ID                                 : A_DTS
Duration                                 : 2h 13mn
Bit rate mode                            : Constant
Bit rate                                 : 768 Kbps
Channel(s)                               : 2 channels
Channel positions                        : Front: L R
Sampling rate                            : 48.0 KHz
Bit depth                                : 24 bits
Compression mode                         : Lossy
Stream size                              : 732 MiB (8%)
Title                                    : DTS
Language                                 : German
Default                                  : Yes
Forced                                   : No

Audio #2
ID                                       : 3
Format                                   : DTS
Format/Info                              : Digital Theater Systems
Mode                                     : 16
Format settings, Endianness              : Big
Codec ID                                 : A_DTS
Duration                                 : 2h 13mn
Bit rate mode                            : Constant
Bit rate                                 : 1 509 Kbps
Channel(s)                               : 2 channels
Channel positions                        : Front: L R
Sampling rate                            : 48.0 KHz
Bit depth                                : 24 bits
Compression mode                         : Lossy
Stream size                              : 1.41 GiB (16%)
Title                                    : DTS
Language                                 : English
Default                                  : No
Forced                                   : No

Text
ID                                       : 4
Format                                   : UTF-8
Codec ID                                 : S_TEXT/UTF8
Codec ID/Info                            : UTF-8 Plain Text
Title                                    : Forced Subs
Language                                 : English
Default                                  : Yes
Forced                                   : No


Download:
Share Online Share OnlineShare OnlineShare Online
 

Kommentare