HD-AREA wünscht Euch eine besinnliche Weihnachtszeit ;)

DNS SERVER AENDERNum der staatlichen Zensur zu umgehen. Sollten wir von eurem Provider geseprrt werden, nutzt den TOR BROWSER oder ändert euren DNS SERVER.

Filmwünsche können bei uns im Forum abgegeben werden

Wir Speichern Nicht




 
 
 
Top Releases
Liebe.Bringt.Alles.Ins.Rolle...
Wer.war.Hitler.2017.German.A...
Liebe.Bringt.Alles.Ins.Rolle...
Liebe.Bringt.Alles.Ins.Rolle...
The.Happy.Prince.2018.German...
Espen.und.die.Legende.vom.Be...
Smallfoot.Ein.eisigartiges.A...
Smallfoot.Ein.eisigartiges.A...
Smallfoot.Ein.eisigartiges.A...
Hubert.und.Staller.Eine.scho...

Cinedubs
Bad.Times.at.the.El.Royale.2...
Bad.Spies.2018.German.DL.AC3...
Aquaman.2018.GERMAN.AC3.MD.7...
Bad.Spies.German.DL.AC3.Dubb...
Bad.Spies.German.DL.AC3.Dubb...
Bad.Times.at.the.El.Royale.G...
Bad.Times.at.the.El.Royale.G...
The.Guilty.German.DL.AC3.Dub...
The.Guilty.German.DL.AC3.Dub...
Johnny.English.Man.lebt.nur....

Neuerscheinungen 2017-18
he.Dragon.Unleashed.2019.GER...
The.Dragon.Unleashed.2019.GE...
The.Dragon.Unleashed.2019.GE...
Tales.of.Poe.2014.GERMAN.DL....
Tales.of.Poe.2014.GERMAN.MER...
Tales.of.Poe.2014.GERMAN.DL....
Kaluoka.Hina.Das.Zauberriff....
Limbradur.und.die.Magie.der....
Kaluoka.Hina.Das.Zauberriff....
Wildling.2018.German.DL.1080...

XXX
Whos.Your.Mama.12.XXX.1080p....
Vixen.18.12.10.Alexa.Grace.A...
Tushy.18.12.12.Ella.Nova.And...
ProducersFun.18.10.13.Molly....
WildOnCam.18.11.26.Kayla.Par...
WickedPictures.I.Know.Youre....
WhenGirlsPlay.18.12.10.Jilli...
VIPissy.18.12.10.Licky.Lex.A...
TrickyOldTeacher.18.12.10.Me...
ProducersFun.18.09.23.Gia.Lo...
ThisGirlSucks.18.12.12.Kyler...
WickedPictures.He.Loves.Me.I...
ProducersFun.18.09.19.Jill.K...
WankItNow.18.12.12.Georgie.L...
TushyRaw.18.12.10.Karla.Kush...
WickedPictures.He.Loves.Me.I...
WankItNow.18.12.12.Jess.West...
Whos.Your.Mama.23.XXX.1080p....
WildOnCam.18.12.03.Vanna.Bar...
WankItNow.18.12.10.Dolly.P.H...

3D
Limbradur.und.die.Magie.der....
Smallfoot.3D.2018.COMPLETE.B...
Smallfoot.Ein.eisigartiges.A...
Skyscraper.3D.2018.German.DL...
Meg.3D.2018.MULTi.COMPLETE.B...
Meg.3D.2018.German.DL.1080p....
Gans.im.Glueck.3D.2018.MULTi...
The.Art.of.Flight.3D.2011.Ge...
The.End.Of.The.World.3D.2010...
The.First.Avenger.Civil.War....
Die.Unglaublichen.2.2018.3D....
Skyscraper.3D.2018.MULTi.COM...
Ant-Man.And.The.Wasp.3D.2018...
Ant.Man.and.the.Wasp.3D.2018...
Die.Unglaublichen.2.3D.2018....

Old_Stuff
Akte.X.S05.German.DTS.DL.108...
Akte.X.S04.German.DTS.DL.108...
Akte.X.S03.German.DTS.DL.108...
Dunkirk.1958.COMPLETE.BLURAY...
Das.Wunder.von.Manhattan.199...
The.Amazing.Spiderman.2.Rise...
Rise.of.the.Predator.2014.Ge...
Detective.Dee.und.das.Geheim...
Detective.Dee.Und.Der.Fluch....
Ghost.Rider.Spirit.of.Vengea...
Species.IV.Das.Erwachen.2007...
Species.IV.Das.Erwachen.2007...
Hotel.Transsilvanien.2012.Ge...
The.Dead.2010.German.DL.1080...
The.Dead.2.India.2013.German...

Filme
Predator.Upgrade.2018.German...
Smallfoot.Ein.eisigartiges.A...
Sam.Whiskey.1969.German.DL.1...
Salz.und.Pfeffer.1968.German...
Running.Man.1987.German.REMA...
Kevin.Allein.in.New.York.199...
Ice.Age.Eine.coole.Bescherun...
Salon.Kitty.1976.German.DL.1...
Salsa.Its.Hot.1988.German.DL...
Salt.DC.German.DL.1080p.BluR...
Salvador.1986.German.DTS.108...
American.Ultra.2015.German.A...
Pauline.am.Strand.1983.Germa...
Salt.Extended.Cut.German.DL....
Sam.O.Cool.Ein.schraeger.Vog...
Naked.Weapon.2002.German.DTS...
Spaceballs.1987.German.AC3D....
My.Fair.Lady.-.50th.Annivers...
The.Avengers.2012.UNCENSORED...
The.Crying.Game.1992.German....
Ducktales.der.Film.Jaeger.de...
Ducktales.der.Film.Jaeger.de...
Ein frohes Fest .........
Spinning.Man.Im.Dunkel.deine...

 
 
Limbradur.und.die.Magie.der.Schwerkraft.2016.German.720p.BluRay.x264-ENCOUNTERS

Jahr: 2018
Genre: Animation, Familie
Sprache: Deutsch DTS
Laufzeit: 45mn 2s
Bitrate: 2 959 Kbps
Format: MKV
Größe: 954 MiB
Release:

Beschreibung:

Der zwölfjährige Zauberlehrling Limbradur interessiert sich mehr für die spannenden Rätsel des Universums als für Zaubersprüche. Deshalb schleicht er sich eines Nachts heimlich in das Albert-Einstein-Museum, wo er auf den cleveren und eigensinnigen Wissensroboter Alby X3 trifft. Gemeinsam gehen die beiden auf eine fantastische Reise durch Raum und Zeit, auf der sie nicht nur die Geheimnisse der Schwerkraft, sondern auch die Kraft der Freundschaft entdecken.



Complete name                            : encounters-liundimadesc_720p.mkv
Format                                   : Matroska
Format version                           : Version 4 / Version 2
File size                                : 954 MiB
Duration                                 : 45mn 2s
Overall bit rate                         : 2 959 Kbps
Encoded date                             : UTC 2018-12-22 18:36:08
Writing application                      : mkvmerge v19.0.0 ('Brave Captain') 64-bit
Writing library                          : libebml v1.3.5 + libmatroska v1.4.8
DURATION                                 : 00:45:02.710000000
NUMBER_OF_FRAMES                         : 253379
NUMBER_OF_BYTES                          : 509798616
_STATISTICS_WRITING_APP                  : mkvmerge v19.0.0 ('Brave Captain') 64-bit
_STATISTICS_WRITING_DATE_UTC             : 2018-12-22 18:36:08
_STATISTICS_TAGS                         : BPS DURATION NUMBER_OF_FRAMES NUMBER_OF_BYTES

Video
ID                                       : 1
Format                                   : AVC
Format/Info                              : Advanced Video Codec
Format profile                           : High@L4.1
Format settings, CABAC                   : Yes
Format settings, ReFrames                : 5 frames
Codec ID                                 : V_MPEG4/ISO/AVC
Duration                                 : 45mn 2s
Bit rate                                 : 1 392 Kbps
Width                                    : 1 280 pixels
Height                                   : 688 pixels
Display aspect ratio                     : 1.85:1
Frame rate mode                          : Constant
Frame rate                               : 23.976 fps
Color space                              : YUV
Chroma subsampling                       : 4:2:0
Bit depth                                : 8 bits
Scan type                                : Progressive
Bits/(Pixel*Frame)                       : 0.066
Stream size                              : 448 MiB (47%)
Writing library                          : x264 core 157 r2935 545de2f
Encoding settings                        : cabac=1 / ref=5 / deblock=1:-1:-1 / analyse=0x3:0x133 / me=umh / subme=7 / psy=1 / psy_rd=1.00:0.15 / mixed_ref=1 / me_range=16 / chroma_me=1 / trellis=1 / 8x8dct=1 / cqm=0 / deadzone=21,11 / fast_pskip=0 / chroma_qp_offset=-3 / threads=16 / lookahead_threads=2 / sliced_threads=0 / nr=0 / decimate=1 / interlaced=0 / bluray_compat=0 / constrained_intra=0 / bframes=3 / b_pyramid=2 / b_adapt=1 / b_bias=0 / direct=1 / weightb=1 / open_gop=0 / weightp=2 / keyint=250 / keyint_min=23 / scenecut=40 / intra_refresh=0 / rc_lookahead=40 / rc=crf / mbtree=1 / crf=20.0 / qcomp=0.60 / qpmin=0 / qpmax=69 / qpstep=4 / ip_ratio=1.40 / aq=1:1.00
Default                                  : Yes
Forced                                   : No

Audio
ID                                       : 2
Format                                   : DTS
Format/Info                              : Digital Theater Systems
Mode                                     : 16
Format settings, Endianness              : Big
Codec ID                                 : A_DTS
Duration                                 : 45mn 2s
Bit rate mode                            : Constant
Bit rate                                 : 1 509 Kbps
Channel(s)                               : 6 channels
Channel positions                        : Front: L C R, Side: L R, LFE
Sampling rate                            : 48.0 KHz
Bit depth                                : 16 bits
Compression mode                         : Lossy
Stream size                              : 486 MiB (51%)
Language                                 : German
Default                                  : Yes
Forced                                   : No


Download:
Share Online Share OnlineShare OnlineShare Online
 

Kommentare