HD-AREA wünscht Euch eine besinnliche Weihnachtszeit ;)

DNS SERVER AENDERNum der staatlichen Zensur zu umgehen. Sollten wir von eurem Provider geseprrt werden, nutzt den TOR BROWSER oder ändert euren DNS SERVER.

Filmwünsche können bei uns im Forum abgegeben werden

Wir Speichern Nicht




 
 
 
Top Releases
Eho.Echo.2016.German.AC3.108...
Constantine.City.of.Demons.T...
Constantine.City.of.Demons.T...
Constantine.City.of.Demons.T...
Mountain.2017.German.DL.DOKU...
Mountain.2017.German.DL.DOKU...
Eleanor.und.Colette.2017.Ger...
Hubert.und.Staller.Eine.scho...
Outrage.Coda.2017.German.AC3...
Sie.nannten.ihn.Jeeg.Robot.2...

Cinedubs
Eho.Echo.German.720p.WEBRip....
Eho.Echo.German.1080p.WEBRip...
Bad.Times.at.the.El.Royale.2...
Bad.Spies.2018.German.DL.AC3...
Aquaman.2018.GERMAN.AC3.MD.7...
Bad.Spies.German.DL.AC3.Dubb...
Bad.Spies.German.DL.AC3.Dubb...
Bad.Times.at.the.El.Royale.G...
Bad.Times.at.the.El.Royale.G...
The.Guilty.German.DL.AC3.Dub...

Neuerscheinungen 2017-18
Ben.1972.DUAL.COMPLETE.BLURA...
In.Love.and.War.1996.German....
Der.Teufelsschrei.Evilspeak....
Der.Teufelsschrei.THEATRICAL...
When.Angels.Sleep.2018.Germa...
Hudsucker.Der.grosse.Sprung....
Assault.Anschlag.bei.Nacht.A...
Subconscious.Cruelty.2000.Ge...
How.It.Ends.2018.German.AC3D...
Subconscious.Cruelty.2000.MU...

XXX
MilfHunter.18.12.17.Bridgett...
MatureNL.18.12.14.Marina.T.H...
MilfBody.18.12.16.Sofie.Mari...
ElegantAngel.Lesbian.Workout...
MatureNL.18.12.11.Kiara.Rizz...
MyDirtyMaid.18.12.18.Violet....
NHLPCentral.18.12.17.Michell...
MetArt.18.12.16.Eva.Jude.Rid...
MelenaMariaRya.18.12.09.Sex....
LaurenPhillips.18.04.20.Stri...
Lesbea.18.12.16.Boni.And.Lea...
LaurenPhillips.18.04.27.Laur...
Lustery.E154.Josh.And.Evie.T...
MetArtX.18.12.16.Sade.Mare.I...
MilfsLikeItBig.18.12.17.Arie...
MommysGirl.18.12.18.Cherie.D...
Lets.Play.Hide.The.Meat.In.M...
ElegantAngel.Inkd.Squirt.Vol...
MyFamilyPies.18.12.18.Kacie....
MatureNL.18.12.14.Mence.And....

3D
Limbradur.und.die.Magie.der....
Kaluoka.Hina.Das.Zauberriff....
Limbradur.und.die.Magie.der....
Smallfoot.3D.2018.COMPLETE.B...
Smallfoot.Ein.eisigartiges.A...
Skyscraper.3D.2018.German.DL...
Meg.3D.2018.MULTi.COMPLETE.B...
Meg.3D.2018.German.DL.1080p....
Gans.im.Glueck.3D.2018.MULTi...
The.Art.of.Flight.3D.2011.Ge...
The.End.Of.The.World.3D.2010...
The.First.Avenger.Civil.War....
Die.Unglaublichen.2.2018.3D....
Skyscraper.3D.2018.MULTi.COM...
Ant-Man.And.The.Wasp.3D.2018...

Old_Stuff
Akte.X.S05.German.DTS.DL.108...
Akte.X.S04.German.DTS.DL.108...
Akte.X.S03.German.DTS.DL.108...
Dunkirk.1958.COMPLETE.BLURAY...
Das.Wunder.von.Manhattan.199...
The.Amazing.Spiderman.2.Rise...
Rise.of.the.Predator.2014.Ge...
Detective.Dee.und.das.Geheim...
Detective.Dee.Und.Der.Fluch....
Ghost.Rider.Spirit.of.Vengea...
Species.IV.Das.Erwachen.2007...
Species.IV.Das.Erwachen.2007...
Hotel.Transsilvanien.2012.Ge...
The.Dead.2010.German.DL.1080...
The.Dead.2.India.2013.German...

Filme
Das.Jerico.Projekt.Im.Kopf.d...
Ghetto.Busters.1988.German.D...
Die.haertesten.Gefaengnisse....
Black.47.2018.German.AC3.DL....
Jung.und.schoen.2013.German....
Die.Seele.des.Essens.GERMAN....
Die.Farmerstochter.1947.Germ...
Strange.Magic.2015.German.DL...
Limbradur.und.die.Magie.der....
No.Bad.Days.2008.German.DL.1...
Der.Mandant.2011.German.AC3....
No.Saints.For.Sinners.2011.G...
Das.Geheimnis.von.Green.Lake...
Die.Fuersten.der.Dunkelheit....
Geheimzentrale.Lissabon.1956...
The.Last.House.on.the.Left.1...
Predators.2010.German.AC3.DL...
A.Perfect.Getaway.2009.UNRAT...
Westworld.S02.COMPLETE.GERMA...
Versprochen.ist.versprochen....
Criminal.Minds.S14.German.DL...
Criminal.Minds.S14.German.DL...
Once.Upon.a.Time.S07.German....
Once.Upon.a.Time.S07.German....

 
 
Das.Jerico.Projekt.Im.Kopf.des.Killers.2016.German.AC3.DL.1080p.BluRay.x265-FuN

Jahr: 2016
Genre: Thriller
Sprache: Deutsch AC3 | Englisch AC3
Laufzeit: 1h 53mn
Bitrate: 2 247 Kbps
Format: MKV
Größe: 1.79 GiB
Release:

Beschreibung:

Jericho Stewart ist ein skrupelloser Killer ohne Impulskontrolle, ohne Empathie und ohne die Fähigkeit, die Folgen seines Handelns abzuschätzen. Bald aber ist er nur noch die Hülle für einen anderen Mann: Stewart wird das Gehirn eines kürzlich ermordeten CIA-Agenten implantiert, das Gehirn von Bill Pope. Während dessen Frau Jill um den Verlust ihres Mannes trauert, soll der sich im Körper von Stewart an seine jüngste Mission erinnern – daran, wohin er einen Mann unter Geheimdienstschutz gebracht hat. Das ist für Popes Vorgesetzten von oberster Priorität, immerhin steht die Sicherheit der Metropolen Washington D.C., Berlin und Peking auf dem Spiel...



Complete name                            : Das.Jerico.Projekt.x265.mkv
Format                                   : Matroska
Format version                           : Version 4 / Version 2
File size                                : 1.79 GiB
Duration                                 : 1h 53mn
Overall bit rate                         : 2 247 Kbps
Encoded date                             : UTC 2018-04-06T22:09:24Z
Writing application                      : HandBrake 1.0.7 2017040900
Writing library                          : Lavf57.7.2

Video
ID                                       : 1
Format                                   : HEVC
Format/Info                              : High Efficiency Video Coding
Format profile                           : Main@L4.0
Codec ID                                 : V_MPEGH/ISO/HEVC
Duration                                 : 1h 53mn
Bit rate                                 : 1 434 Kbps
Width                                    : 1 916 pixels
Height                                   : 804 pixels
Display aspect ratio                     : 2.40:1
Frame rate mode                          : Constant
Frame rate                               : 23.976 fps
Color space                              : YUV
Chroma subsampling                       : 4:2:0
Bit depth                                : 8 bits
Bits/(Pixel*Frame)                       : 0.039
Stream size                              : 1.14 GiB (64%)
Writing library                          : x265 2.1:[Windows][GCC 5.3.1][64 bit] 8bit
Encoding settings                        : wpp / ctu=64 / min-cu-size=8 / max-tu-size=32 / tu-intra-depth=1 / tu-inter-depth=1 / me=1 / subme=2 / merange=57 / no-rect / no-amp / max-merge=2 / temporal-mvp / no-early-skip / rskip / rdpenalty=0 / no-tskip / no-tskip-fast / strong-intra-smoothing / no-lossless / no-cu-lossless / no-constrained-intra / fast-intra / open-gop / no-temporal-layers / interlace=0 / keyint=240 / min-keyint=24 / scenecut=40 / rc-lookahead=15 / lookahead-slices=5 / bframes=4 / bframe-bias=0 / b-adapt=0 / ref=3 / limit-refs=3 / no-limit-modes / weightp / no-weightb / aq-mode=1 / qg-size=32 / aq-strength=1.00 / cbqpoffs=0 / crqpoffs=0 / rd=2 / psy-rd=2.00 / rdoq-level=0 / psy-rdoq=0.00 / log2-max-poc-lsb=8 / no-rd-refine / signhide / deblock=0:0 / sao / no-sao-non-deblock / b-pyramid / cutree / no-intra-refresh / rc=crf / crf=21.0 / qcomp=0.60 / qpmin=0 / qpmax=69 / qpstep=4 / ipratio=1.40 / pbratio=1.30
Default                                  : Yes
Forced                                   : No

Audio #1
ID                                       : 2
Format                                   : AC-3
Format/Info                              : Audio Coding 3
Mode extension                           : CM (complete main)
Format settings, Endianness              : Big
Codec ID                                 : A_AC3
Duration                                 : 1h 53mn
Bit rate mode                            : Constant
Bit rate                                 : 384 Kbps
Channel(s)                               : 6 channels
Channel positions                        : Front: L C R, Side: L R, LFE
Sampling rate                            : 48.0 KHz
Bit depth                                : 16 bits
Compression mode                         : Lossy
Delay relative to video                  : -5ms
Stream size                              : 313 MiB (17%)
Title                                    : Surround
Language                                 : German
Default                                  : Yes
Forced                                   : No

Audio #2
ID                                       : 3
Format                                   : AC-3
Format/Info                              : Audio Coding 3
Mode extension                           : CM (complete main)
Format settings, Endianness              : Big
Codec ID                                 : A_AC3
Duration                                 : 1h 53mn
Bit rate mode                            : Constant
Bit rate                                 : 384 Kbps
Channel(s)                               : 6 channels
Channel positions                        : Front: L C R, Side: L R, LFE
Sampling rate                            : 48.0 KHz
Bit depth                                : 16 bits
Compression mode                         : Lossy
Delay relative to video                  : -5ms
Stream size                              : 313 MiB (17%)
Title                                    : Surround
Language                                 : English
Default                                  : No
Forced                                   : No

Text
ID                                       : 4
Format                                   : ASS
Codec ID                                 : S_TEXT/ASS
Codec ID/Info                            : Advanced Sub Station Alpha
Compression mode                         : Lossless
Language                                 : German
Default                                  : No
Forced                                   : No


Download:
Share Online Share OnlineShare OnlineShare Online
 

Kommentare