HD-AREA wünscht Euch eine besinnliche Weihnachtszeit ;)

DNS SERVER AENDERNum der staatlichen Zensur zu umgehen. Sollten wir von eurem Provider geseprrt werden, nutzt den TOR BROWSER oder ändert euren DNS SERVER.

Filmwünsche können bei uns im Forum abgegeben werden

Wir Speichern Nicht




 
 
 
Top Releases
Mountain.2017.DOKU.DUAL.COMP...
Eho.Echo.2016.German.AC3.108...
Constantine.City.of.Demons.T...
Constantine.City.of.Demons.T...
Constantine.City.of.Demons.T...
Mountain.2017.German.DL.DOKU...
Mountain.2017.German.DL.DOKU...
Eleanor.und.Colette.2017.Ger...
Hubert.und.Staller.Eine.scho...
Outrage.Coda.2017.German.AC3...

Cinedubs
Aquaman.TS.LD.German.DL.720p...
Eho.Echo.German.720p.WEBRip....
Eho.Echo.German.1080p.WEBRip...
Bad.Times.at.the.El.Royale.2...
Bad.Spies.2018.German.DL.AC3...
Aquaman.2018.GERMAN.AC3.MD.7...
Bad.Spies.German.DL.AC3.Dubb...
Bad.Spies.German.DL.AC3.Dubb...
Bad.Times.at.the.El.Royale.G...
Bad.Times.at.the.El.Royale.G...

Neuerscheinungen 2017-18
Ben.1972.DUAL.COMPLETE.BLURA...
In.Love.and.War.1996.German....
Der.Teufelsschrei.Evilspeak....
Der.Teufelsschrei.THEATRICAL...
When.Angels.Sleep.2018.Germa...
Hudsucker.Der.grosse.Sprung....
Assault.Anschlag.bei.Nacht.A...
Subconscious.Cruelty.2000.Ge...
How.It.Ends.2018.German.AC3D...
Subconscious.Cruelty.2000.MU...

XXX
RKPrime.18.12.17.Bonnie.Rott...
PornMegaLoad.18.12.15.Korina...
ShockChallenge.2018.12.15.Mi...
PornMegaLoad.18.12.17.Samant...
ReadyOrNotHereICum.18.12.18....
Nubiles.18.12.16.Laura.Angel...
RealGirlsGoneBad.18.12.15.Pa...
PornStreamLive.18.12.15.Ging...
RodneyMoore.18.07.19.Mischie...
Penthouse.Pornville.XXX.720p...
SexAndSubmission.18.11.16.De...
PetiteBallerinasFucked.18.11...
RKPrime.18.12.18.Adriana.Che...
Nubiles.18.12.16.Elina.De.Le...
ShockChallenge.2018.12.08.So...
NothingButCurves.18.12.11.Li...
Sperma-Studio.18.12.09.Sperm...
Nerd.Pervert.Vol.39.XXX.1080...
PureTaboo.18.12.18.Emily.Wil...
Nubiles.18.11.20.Jill.B.Take...

3D
Limbradur.und.die.Magie.der....
Kaluoka.Hina.Das.Zauberriff....
Limbradur.und.die.Magie.der....
Smallfoot.3D.2018.COMPLETE.B...
Smallfoot.Ein.eisigartiges.A...
Skyscraper.3D.2018.German.DL...
Meg.3D.2018.MULTi.COMPLETE.B...
Meg.3D.2018.German.DL.1080p....
Gans.im.Glueck.3D.2018.MULTi...
The.Art.of.Flight.3D.2011.Ge...
The.End.Of.The.World.3D.2010...
The.First.Avenger.Civil.War....
Die.Unglaublichen.2.2018.3D....
Skyscraper.3D.2018.MULTi.COM...
Ant-Man.And.The.Wasp.3D.2018...

Old_Stuff
Akte.X.S05.German.DTS.DL.108...
Akte.X.S04.German.DTS.DL.108...
Akte.X.S03.German.DTS.DL.108...
Dunkirk.1958.COMPLETE.BLURAY...
Das.Wunder.von.Manhattan.199...
The.Amazing.Spiderman.2.Rise...
Rise.of.the.Predator.2014.Ge...
Detective.Dee.und.das.Geheim...
Detective.Dee.Und.Der.Fluch....
Ghost.Rider.Spirit.of.Vengea...
Species.IV.Das.Erwachen.2007...
Species.IV.Das.Erwachen.2007...
Hotel.Transsilvanien.2012.Ge...
The.Dead.2010.German.DL.1080...
The.Dead.2.India.2013.German...

Filme
Cinderella.1950.Kino.Synchro...
Dinner.for.one.Der.neunzigst...
VW.Kaefer.Volkswagen.fuer.di...
Ueber.den.Todespass.1954.GER...
Superbad.2007.German.DL.1080...
Ostfriesenblut.2018.German.7...
Iran.bittersuess.-.Reise.dur...
Batman.Raetsel.um.Batwoman.2...
Batman.Raetsel.um.Batwoman.2...
Normandie.Die.letzte.Mission...
Batman.Raetsel.um.Batwoman.2...
Urban.Priol.Tilt.Tschuessiko...
Lisa.Eckhart.Als.ob.Sie.Bess...
By.the.Gun.Zeit.der.Vergeltu...
Tommy.Boy.1995.German.AC3D.D...
Die.Simpsons.Der.Film.2007.G...
The.Leftovers.S01-S03.COMPLE...
Die.Fuersten.der.Dunkelheit....
Air.2015.German.AC3D.DL.1080...
Keine.halben.Sachen.2.2004.G...
Das.Jerico.Projekt.Im.Kopf.d...
Ghetto.Busters.1988.German.D...
Die.haertesten.Gefaengnisse....
Black.47.2018.German.AC3.DL....

 
 
The.Leftovers.S01-S03.COMPLETE.German.DL.720p.BluRay.x264-Scene

Jahr: 2014-2017
Genre: Drama | Fantasy | Mystery
Sprache: Deutsch AC3 | Englisch AC3
Laufzeit: 45min je Folge
Bitrate: 3000-4000 Kbps
Format: MKV
Größe: 2 GB je Folge
Release:

Beschreibung:

Ein Tag im Oktober – und nichts ist mehr, wie es einmal war: 140 Millionen Menschen verschwinden urplötzlich von der Erde. Normale Frauen, Männer und Kinder, aber auch berühmte Persönlichkeiten und sogar der Papst sind unter den Vermissten. Die übrig gebliebene Bevölkerung – „The Leftovers“ – bleibt traumatisiert zurück. Urteilte das Jüngste Gericht darüber, wer die Erde verlässt und wer bleibt? Manche fragen sich, warum sie nicht „auserwählt“ wurden. Trauer, Wut und Depression sind die psychologischen Folgen, mit denen die Verbliebenen kämpfen. Ein Teil der Orientierungslosen sucht Zuflucht bei Sekten und Gurus. Polizeichef Kevin Garvey (Justin Theroux) muss in dem kleinen Ort Mapleton ein normales Leben aufrechterhalten. Doch seine Familie bricht allmählich auseinander: Seine Frau schließt sich der mysteriösen Bewegung der „Guilty Remnants“ an, sein erwachsener Sohn Tom (Chris Zylka) folgt dem Heiler Wayne und seine 16-jährige Tochter Jill (Margaret Qualley) verliert den Glauben an die Zukunft.

 

Notes: S01/S02 iNTENTiON  S03 TV4A



General
Complete name                            : The.Leftovers.S01E01.German.DL.720p.BluRay.x264-iNTENTiON\the.leftovers.s01e01.german.dl.720p.bluray.x264-intention.mkv
Format                                   : Matroska
Format version                           : Version 2
File size                                : 2.16 GiB
Duration                                 : 1h 11mn
Overall bit rate                         : 4 319 Kbps
Writing application                      : mkvmerge v6.6.0 ('The Edge Of The In Between') built on Dec 1 2013 17:55:00
Writing library                          : libebml v1.3.0 + libmatroska v1.4.1

Video
ID                                       : 1
Format                                   : AVC
Format/Info                              : Advanced Video Codec
Format profile                           : High@L4.1
Format settings, CABAC                   : Yes
Format settings, ReFrames                : 5 frames
Codec ID                                 : V_MPEG4/ISO/AVC
Duration                                 : 1h 11mn
Bit rate                                 : 3 210 Kbps
Width                                    : 1 280 pixels
Height                                   : 720 pixels
Display aspect ratio                     : 16:9
Frame rate mode                          : Constant
Frame rate                               : 23.976 fps
Color space                              : YUV
Chroma subsampling                       : 4:2:0
Bit depth                                : 8 bits
Scan type                                : Progressive
Bits/(Pixel*Frame)                       : 0.145
Stream size                              : 1.61 GiB (74%)
Writing library                          : x264 core 148 r2597 e86f3a1
Encoding settings                        : cabac=1 / ref=5 / deblock=1:-3:-3 / analyse=0x3:0x133 / me=umh / subme=8 / psy=1 / psy_rd=1.00:0.15 / mixed_ref=1 / me_range=16 / chroma_me=1 / trellis=1 / 8x8dct=1 / cqm=0 / deadzone=21,11 / fast_pskip=0 / chroma_qp_offset=-3 / threads=12 / lookahead_threads=2 / sliced_threads=0 / nr=0 / decimate=1 / interlaced=0 / bluray_compat=0 / constrained_intra=0 / bframes=3 / b_pyramid=2 / b_adapt=2 / b_bias=0 / direct=3 / weightb=1 / open_gop=0 / weightp=2 / keyint=230 / keyint_min=23 / scenecut=40 / intra_refresh=0 / rc_lookahead=50 / rc=crf / mbtree=1 / crf=20.0 / qcomp=0.60 / qpmin=0 / qpmax=69 / qpstep=4 / ip_ratio=1.40 / aq=1:1.00
Language                                 : English
Default                                  : Yes
Forced                                   : No

Audio #1
ID                                       : 2
Format                                   : AC-3
Format/Info                              : Audio Coding 3
Mode extension                           : CM (complete main)
Format settings, Endianness              : Big
Codec ID                                 : A_AC3
Duration                                 : 1h 11mn
Bit rate mode                            : Constant
Bit rate                                 : 384 Kbps
Channel(s)                               : 6 channels
Channel positions                        : Front: L C R, Side: L R, LFE
Sampling rate                            : 48.0 KHz
Bit depth                                : 16 bits
Compression mode                         : Lossy
Stream size                              : 197 MiB (9%)
Language                                 : German
Default                                  : Yes
Forced                                   : No

Audio #2
ID                                       : 3
Format                                   : AC-3
Format/Info                              : Audio Coding 3
Mode extension                           : CM (complete main)
Format settings, Endianness              : Big
Codec ID                                 : A_AC3
Duration                                 : 1h 11mn
Bit rate mode                            : Constant
Bit rate                                 : 640 Kbps
Channel(s)                               : 6 channels
Channel positions                        : Front: L C R, Side: L R, LFE
Sampling rate                            : 48.0 KHz
Bit depth                                : 16 bits
Compression mode                         : Lossy
Stream size                              : 328 MiB (15%)
Language                                 : English
Default                                  : Yes
Forced                                   : No

Text
ID                                       : 4
Format                                   : UTF-8
Codec ID                                 : S_TEXT/UTF8
Codec ID/Info                            : UTF-8 Plain Text
Title                                    : Forced
Language                                 : German
Default                                  : Yes
Forced                                   : No

Menu
00:00:00.000                             : en:00:00:00.000
00:09:28.443                             : en:00:09:28.443
00:19:25.873                             : en:00:19:25.873
00:32:24.860                             : en:00:32:24.860
00:39:09.264                             : en:00:39:09.264
00:50:34.114                             : en:00:50:34.114
01:00:21.952                             : en:01:00:21.952
01:10:01.406                             : en:01:10:01.406



Download:
Share-Online.biz Share-Online.bizShare-Online.bizShare-Online.biz | Rapidgator.net Rapidgator.netRapidgator.netRapidgator.net | DDL.to DDL.toDDL.toDDL.to
 

Kommentare