HD-AREA wünscht Euch eine besinnliche Weihnachtszeit ;)

DNS SERVER AENDERNum der staatlichen Zensur zu umgehen. Sollten wir von eurem Provider geseprrt werden, nutzt den TOR BROWSER oder ändert euren DNS SERVER.

Filmwünsche können bei uns im Forum abgegeben werden

Wir Speichern Nicht




 
 
 
Top Releases
Brotherhood.of.Blades.2.2017...
Brotherhood.of.Blades.2.2017...
Brotherhood.of.Blades.2.2017...
Kill.Bill.The.Whole.Bloody.A...
Kill.Bill.The.Whole.Bloody.A...
Meine.schoene.innere.Sonne.2...
Meine.schoene.innere.Sonne.2...
Meine.schoene.innere.Sonne.2...
Mountain.2017.DOKU.DUAL.COMP...
Eho.Echo.2016.German.AC3.108...

Cinedubs
Aquaman.TS.LD.German.DL.720p...
Eho.Echo.German.720p.WEBRip....
Eho.Echo.German.1080p.WEBRip...
Bad.Times.at.the.El.Royale.2...
Bad.Spies.2018.German.DL.AC3...
Aquaman.2018.GERMAN.AC3.MD.7...
Bad.Spies.German.DL.AC3.Dubb...
Bad.Spies.German.DL.AC3.Dubb...
Bad.Times.at.the.El.Royale.G...
Bad.Times.at.the.El.Royale.G...

Neuerscheinungen 2017-18
Der.Koenig.und.ich.1956.GERM...
Ben.1972.DUAL.COMPLETE.BLURA...
In.Love.and.War.1996.German....
Der.Teufelsschrei.Evilspeak....
Der.Teufelsschrei.THEATRICAL...
When.Angels.Sleep.2018.Germa...
Hudsucker.Der.grosse.Sprung....
Assault.Anschlag.bei.Nacht.A...
Subconscious.Cruelty.2000.Ge...
How.It.Ends.2018.German.AC3D...

XXX
The.Many.Shades.of.Juliette....
SpyFam.18.12.17.Elsa.Jean.XX...
RodneyMoore.18.12.12.Claire....
RodneyMoore.18.12.13.Aleah.P...
RodneyMoore.18.09.13.Alexa.G...
StrandedTeens.18.12.18.Vienn...
ThaiGirlsWild.18.12.03.Panda...
RodneyMoore.18.09.11.Lynn.Pl...
TeachMeFisting.18.12.17.Lady...
SapphicErotica.18.12.17.Lady...
Stunning18.18.12.17.Juliet.W...
RodneyMoore.18.09.27.Klaudia...
SweetSinner.18.12.18.India.S...
RKPrime.18.12.17.Bonnie.Rott...
PornMegaLoad.18.12.15.Korina...
ShockChallenge.2018.12.15.Mi...
PornMegaLoad.18.12.17.Samant...
ReadyOrNotHereICum.18.12.18....
Nubiles.18.12.16.Laura.Angel...
RealGirlsGoneBad.18.12.15.Pa...

3D
Limbradur.und.die.Magie.der....
Kaluoka.Hina.Das.Zauberriff....
Limbradur.und.die.Magie.der....
Smallfoot.3D.2018.COMPLETE.B...
Smallfoot.Ein.eisigartiges.A...
Skyscraper.3D.2018.German.DL...
Meg.3D.2018.MULTi.COMPLETE.B...
Meg.3D.2018.German.DL.1080p....
Gans.im.Glueck.3D.2018.MULTi...
The.Art.of.Flight.3D.2011.Ge...
The.End.Of.The.World.3D.2010...
The.First.Avenger.Civil.War....
Die.Unglaublichen.2.2018.3D....
Skyscraper.3D.2018.MULTi.COM...
Ant-Man.And.The.Wasp.3D.2018...

Old_Stuff
Akte.X.S05.German.DTS.DL.108...
Akte.X.S04.German.DTS.DL.108...
Akte.X.S03.German.DTS.DL.108...
Dunkirk.1958.COMPLETE.BLURAY...
Das.Wunder.von.Manhattan.199...
The.Amazing.Spiderman.2.Rise...
Rise.of.the.Predator.2014.Ge...
Detective.Dee.und.das.Geheim...
Detective.Dee.Und.Der.Fluch....
Ghost.Rider.Spirit.of.Vengea...
Species.IV.Das.Erwachen.2007...
Species.IV.Das.Erwachen.2007...
Hotel.Transsilvanien.2012.Ge...
The.Dead.2010.German.DL.1080...
The.Dead.2.India.2013.German...

Filme
Zwei.tolle.Kaefer.raeumen.au...
Zwei.tolle.Kaefer.raeumen.au...
Der.Koenig.und.ich.1956.GERM...
Die.Maedchen.von.Rochefort.1...
Frau.zu.verschenken.1978.GER...
Freddy.und.das.Lied.der.Prae...
Oliver.Twist.1948.GERMAN.FS....
Stunksitzung.Doener.for.One....
Zwei.Weihnachtshunde.2005.GE...
Dornroeschen.2009.GERMAN.720...
Der.Weihnachtshund.2004.GERM...
Erdrutsch.Wenn.die.Welt.vers...
Erdrutsch.Wenn.die.Welt.vers...
Jetzt.bringen.wir.unsere.Mae...
Ring.2.2005.German.1080p.HDT...
Ring.2.2005.German.720p.HDTV...
Spy.Kids.2.Die.Rueckkehr.der...
Spy.Kids.2.Die.Rueckkehr.der...
Wenn.der.Mond.auf.die.Erde.s...
Wenn.der.Mond.auf.die.Erde.s...
Young.Guns.II.1990.GERMAN.AC...
Zeichen.des.Boesen.Die.Runen...
Scary.Movie.2000.German.DL.1...
Schaendung.2014.German.1080p...

 
 
Brotherhood.of.Blades.2.2017.German.720p.BluRay.x264-ENCOUNTERS

Jahr: 2017
Genre: Action, Drama
Sprache: Deutsch DTS
Laufzeit: 1h 59mn
Bitrate: 3 478 Kbps
Format: MKV
Größe: 2.91 GiB
Release:

Beschreibung:

China in der Ming-Dynastie: Lian Shen (Chang Chen), Leibwächter in der kaiserlichen Garde, wird während einer Mission Opfer einer politischen Verschwörung. Um seinen Namen reinzuwaschen, muss er die gesuchte Rebellin Zhai Bei (Yang Mi) finden. Doch wird Zhai ihm helfen oder ist das einzige, auf das er sich im Kampf um die Wahrheit verlassen kann, sein Schwert?



Complete name                            : encounters-brofbl2_720p.mkv
Format                                   : Matroska
Format version                           : Version 4 / Version 2
File size                                : 2.91 GiB
Duration                                 : 1h 59mn
Overall bit rate                         : 3 478 Kbps
Encoded date                             : UTC 2018-12-29 19:04:40
Writing application                      : mkvmerge v19.0.0 ('Brave Captain') 64-bit
Writing library                          : libebml v1.3.5 + libmatroska v1.4.8
DURATION                                 : 01:52:38.875000000
NUMBER_OF_FRAMES                         : 17
NUMBER_OF_BYTES                          : 706
_STATISTICS_WRITING_APP                  : mkvmerge v19.0.0 ('Brave Captain') 64-bit
_STATISTICS_WRITING_DATE_UTC             : 2018-12-29 19:04:40
_STATISTICS_TAGS                         : BPS DURATION NUMBER_OF_FRAMES NUMBER_OF_BYTES

Video
ID                                       : 1
Format                                   : AVC
Format/Info                              : Advanced Video Codec
Format profile                           : High@L4.1
Format settings, CABAC                   : Yes
Format settings, ReFrames                : 5 frames
Codec ID                                 : V_MPEG4/ISO/AVC
Duration                                 : 1h 59mn
Bit rate                                 : 1 899 Kbps
Width                                    : 1 280 pixels
Height                                   : 480 pixels
Display aspect ratio                     : 2.667
Frame rate mode                          : Constant
Frame rate                               : 24.000 fps
Color space                              : YUV
Chroma subsampling                       : 4:2:0
Bit depth                                : 8 bits
Scan type                                : Progressive
Bits/(Pixel*Frame)                       : 0.129
Stream size                              : 1.59 GiB (55%)
Writing library                          : x264 core 157 r2935 545de2f
Encoding settings                        : cabac=1 / ref=5 / deblock=1:-1:-1 / analyse=0x3:0x133 / me=umh / subme=7 / psy=1 / psy_rd=1.00:0.15 / mixed_ref=1 / me_range=16 / chroma_me=1 / trellis=1 / 8x8dct=1 / cqm=0 / deadzone=21,11 / fast_pskip=0 / chroma_qp_offset=-3 / threads=16 / lookahead_threads=2 / sliced_threads=0 / nr=0 / decimate=1 / interlaced=0 / bluray_compat=0 / constrained_intra=0 / bframes=3 / b_pyramid=2 / b_adapt=1 / b_bias=0 / direct=1 / weightb=1 / open_gop=0 / weightp=2 / keyint=250 / keyint_min=24 / scenecut=40 / intra_refresh=0 / rc_lookahead=40 / rc=crf / mbtree=1 / crf=20.0 / qcomp=0.60 / qpmin=0 / qpmax=69 / qpstep=4 / ip_ratio=1.40 / aq=1:1.00
Default                                  : Yes
Forced                                   : No

Audio
ID                                       : 2
Format                                   : DTS
Format/Info                              : Digital Theater Systems
Mode                                     : 16
Format settings, Endianness              : Big
Codec ID                                 : A_DTS
Duration                                 : 1h 59mn
Bit rate mode                            : Constant
Bit rate                                 : 1 509 Kbps
Channel(s)                               : 6 channels
Channel positions                        : Front: L C R, Side: L R, LFE
Sampling rate                            : 48.0 KHz
Bit depth                                : 24 bits
Compression mode                         : Lossy
Stream size                              : 1.26 GiB (43%)
Language                                 : German
Default                                  : Yes
Forced                                   : No

Text
ID                                       : 3
Format                                   : UTF-8
Codec ID                                 : S_TEXT/UTF8
Codec ID/Info                            : UTF-8 Plain Text
Language                                 : German
Default                                  : Yes
Forced                                   : Yes


Download:
Share Online Share OnlineShare OnlineShare Online
 

Kommentare