DNS SERVER AENDERNum der staatlichen Zensur zu umgehen. Sollten wir von eurem Provider geseprrt werden, nutzt den TOR BROWSER oder ändert euren DNS SERVER.

Filmwünsche können bei uns im Forum abgegeben werden

Wir Speichern Nicht




 
 
 
Top Releases
Die.Unglaublichen.2.2018.Ger...
Die.Unglaublichen.2.2018.Ger...
Take.The.Ball.Pass.The.Ball....
Take.The.Ball.Pass.The.Ball....
Upgrade.German.DL.AC3.Dubbed...
Upgrade.German.DL.AC3.Dubbed...
The.Guilty.2018.German.720p....
The.Guilty.2018.German.1080p...
The.Guilty.2018.MULTi.COMPLE...
Padmaavat.Ein.Koenigreich.fu...

Cinedubs
Dont.Worry.weglaufen.geht.ni...
Dont.Worry.weglaufen.geht.ni...
Gaensehaut.2.Gruseliges.Hall...
Aquaman.TS.LD.German.DL.720p...
Eho.Echo.German.720p.WEBRip....
Eho.Echo.German.1080p.WEBRip...
Bad.Times.at.the.El.Royale.2...
Bad.Spies.2018.German.DL.AC3...
Aquaman.2018.GERMAN.AC3.MD.7...
Bad.Spies.German.DL.AC3.Dubb...

Neuerscheinungen 2018-19
The.Last.Laugh.2019.German.D...
Night.School.EXTENDED.German...
Night.School.EXTENDED.German...
Terrifier.UNCUT.GERMAN.2016....
Dieter.der.Film.2006.German....
Godzilla.The.Planet.Eater.20...
Godzilla.The.Planet.Eater.20...
Do.the.Right.Thing.1989.Germ...
Welcome.Home.2018.German.DL....
Welcome.Home.2018.German.720...

XXX
MyLifeInMiami.18.12.05.Vina....
Lustery.E157.Maya.And.Edward...
NinaKayy.17.05.12.Foot.Teasi...
NataliaStarr.18.03.09.Sexy.W...
NataliaStarr.18.03.09.Heatin...
NataliaStarr.18.03.09.Cummin...
NHLPCentral.18.12.26.April.P...
NinaKayy.17.05.06.Foot.Domin...
MomXXX.18.12.27.Kiki.Minaj.X...
MyLifeInMiami.18.12.21.Kitty...
MommyBlowsBest.18.12.26.Lexi...
NinaKayy.17.05.09.Sexting.Yo...
MyLifeInMiami.18.11.30.Brook...
NataliaStarr.18.03.09.Riding...
MyLifeInMiami.18.12.21.Megan...
MassageRooms.18.12.26.Angel....
MomsBangTeens.18.12.25.Cory....
NHLPCentral.18.12.20.Tindra....
NinaKayy.17.05.14.Betty.Bang...
NinaKayy.17.05.01.Netflix.Ch...

3D
Walhalla.Rising.3D.2009.DUAL...
Sleepwalker.3D.2011.DUAL.COM...
Bis.an.die.Grenzen.des.Unive...
Best.of.3D.vol.13.-.15.GERMA...
Limbradur.und.die.Magie.der....
Kaluoka.Hina.Das.Zauberriff....
Limbradur.und.die.Magie.der....
Smallfoot.3D.2018.COMPLETE.B...
Smallfoot.Ein.eisigartiges.A...
Skyscraper.3D.2018.German.DL...
Meg.3D.2018.MULTi.COMPLETE.B...
Meg.3D.2018.German.DL.1080p....
Gans.im.Glueck.3D.2018.MULTi...
The.Art.of.Flight.3D.2011.Ge...
The.End.Of.The.World.3D.2010...

Old_Stuff
Animatrix.2003.German.DL.108...
Animatrix.2003.German.DL.720...
Akte.X.S06.German.DTS.DL.108...
The.Beauty.of.Gemina.Minor.S...
ZZ.Top.Live.from.Texas.2008....
Peter.Hase.2018.German.DL.10...
Akte.X.S05.German.DTS.DL.108...
Akte.X.S04.German.DTS.DL.108...
Akte.X.S03.German.DTS.DL.108...
Dunkirk.1958.COMPLETE.BLURAY...
Das.Wunder.von.Manhattan.199...
The.Amazing.Spiderman.2.Rise...
Rise.of.the.Predator.2014.Ge...
Detective.Dee.und.das.Geheim...
Detective.Dee.Und.Der.Fluch....

Filme
Havanna.1990.German.DL.1080p...
Havanna.1990.German.DL.720p....
Das.blaue.Licht.2010.GERMAN....
Elephant.White.2011.DUAL.COM...
Gunpowder.S01.COMPLETE.Germa...
Outlander.S04.German.DD51.DL...
Outlander.S04.German.DD51.DL...
Once.Upon.a.Time.S07.German....
Once.Upon.a.Time.S07.German....
Terrifier.UNCUT.GERMAN.2016....
Gigant.am.Gletscher.Vom.Bau....
Giganten.Die.10.groessten.Un...
Giganten.Die.10.groessten.Un...
Der.Neandertaler.in.uns.E01....
Der.Neandertaler.in.uns.E01....
Werner.Beinhart.1990.German....
Werner.Beinhart.1990.German....
Dieter.der.Film.2006.German....
Do.the.Right.Thing.1989.Germ...
Wynonna.Earp.S01D01-2.MULTi....
Der.Campus.1998.German.1080p...
Mountain.2017.DOKU.German.DL...
Ein.Wunder.S01.GERMAN.DL.AC3...
When.Heroes.Fly.S01.COMPLETE...

 
 
Havanna.1990.German.DL.1080p.BluRay.x264-RedHands

Jahr: 1990
Genre: Drama, Kriegsfilm
Sprache: Deutsch DTS | Englisch DTS
Laufzeit: 2h 24mn
Bitrate: 13.0 Mbps
Format: MKV
Größe: 13.1 GiB
Release:

Beschreibung:

Mitten in den Wirren der kubanischen Revolution gegen General Batista wendet sich das Blatt für US-Pokerprofi Jack Weil (Robert Redford): Auf dem Weg zu einer Pokerrunde nach Havanna verliebt er sich unsterblich in die Revolutionärsgattin Roberta (Lena Olin), die mit ihrem Ehemann kurz darauf festgenommen und gefoltert wird. Tatsächlich gelingt es Jack dank seiner Verbindungen, sie freizubekommen. Während ihr Mann für tot gehalten wird und die Revolutionäre nach der Macht greifen, beginnen Jack und Roberta eine leidenschaftliche Affäre. Doch ausgerechnet am Vorabend von Castros Machtübernahme wird Jack zu einer folgenschweren Entscheidung gezwungen.



Complete name                            : rh-havanna.1990.1080p.mkv
Format                                   : Matroska
Format version                           : Version 4 / Version 2
File size                                : 13.1 GiB
Duration                                 : 2h 24mn
Overall bit rate                         : 13.0 Mbps
Movie name                               : Havanna.1990.German.DL.1080p.BluRay.x264-RedHands
Encoded date                             : UTC 2019-01-11 18:34:40
Writing application                      : mkvmerge v24.0.0 ('Beyond The Pale') 64-bit
Writing library                          : libebml v1.3.6 + libmatroska v1.4.9
DURATION                                 : 00:17:24.126000000
NUMBER_OF_FRAMES                         : 11
NUMBER_OF_BYTES                          : 263
_STATISTICS_WRITING_APP                  : mkvmerge v24.0.0 ('Beyond The Pale') 64-bit
_STATISTICS_WRITING_DATE_UTC             : 2019-01-11 18:34:40
_STATISTICS_TAGS                         : BPS DURATION NUMBER_OF_FRAMES NUMBER_OF_BYTES

Video
ID                                       : 1
Format                                   : AVC
Format/Info                              : Advanced Video Codec
Format profile                           : High@L4.1
Format settings, CABAC                   : Yes
Format settings, ReFrames                : 4 frames
Codec ID                                 : V_MPEG4/ISO/AVC
Duration                                 : 2h 24mn
Bit rate                                 : 11.5 Mbps
Width                                    : 1 920 pixels
Height                                   : 1 040 pixels
Display aspect ratio                     : 1.85:1
Frame rate mode                          : Constant
Frame rate                               : 23.976 fps
Color space                              : YUV
Chroma subsampling                       : 4:2:0
Bit depth                                : 8 bits
Scan type                                : Progressive
Bits/(Pixel*Frame)                       : 0.239
Stream size                              : 11.3 GiB (86%)
Writing library                          : x264 core 157 r2935 545de2f
Encoding settings                        : cabac=1 / ref=4 / deblock=1:-2:-2 / analyse=0x3:0x133 / me=umh / subme=10 / psy=1 / psy_rd=1.00:0.25 / mixed_ref=1 / me_range=16 / chroma_me=1 / trellis=2 / 8x8dct=1 / cqm=0 / deadzone=6,6 / fast_pskip=0 / chroma_qp_offset=-4 / threads=24 / lookahead_threads=2 / sliced_threads=0 / nr=0 / decimate=0 / interlaced=0 / bluray_compat=0 / constrained_intra=0 / bframes=3 / b_pyramid=2 / b_adapt=1 / b_bias=0 / direct=3 / weightb=1 / open_gop=0 / weightp=2 / keyint=240 / keyint_min=23 / scenecut=40 / intra_refresh=0 / rc_lookahead=50 / rc=2pass / mbtree=1 / bitrate=11465 / ratetol=1.0 / qcomp=0.80 / qpmin=0 / qpmax=69 / qpstep=4 / cplxblur=20.0 / qblur=0.5 / ip_ratio=1.10 / aq=1:0.50
Default                                  : Yes
Forced                                   : No

Audio #1
ID                                       : 2
Format                                   : DTS
Format/Info                              : Digital Theater Systems
Mode                                     : 16
Format settings, Endianness              : Big
Codec ID                                 : A_DTS
Duration                                 : 2h 24mn
Bit rate mode                            : Constant
Bit rate                                 : 768 Kbps
Channel(s)                               : 2 channels
Channel positions                        : Front: L R
Sampling rate                            : 48.0 KHz
Bit depth                                : 24 bits
Compression mode                         : Lossy
Stream size                              : 794 MiB (6%)
Language                                 : German
Default                                  : Yes
Forced                                   : No

Audio #2
ID                                       : 3
Format                                   : DTS
Format/Info                              : Digital Theater Systems
Mode                                     : 16
Format settings, Endianness              : Big
Codec ID                                 : A_DTS
Duration                                 : 2h 24mn
Bit rate mode                            : Constant
Bit rate                                 : 768 Kbps
Channel(s)                               : 6 channels
Channel positions                        : Front: L C R, Side: L R, LFE
Sampling rate                            : 48.0 KHz
Bit depth                                : 24 bits
Compression mode                         : Lossy
Stream size                              : 794 MiB (6%)
Language                                 : English
Default                                  : No
Forced                                   : No

Text
ID                                       : 4
Format                                   : UTF-8
Codec ID                                 : S_TEXT/UTF8
Codec ID/Info                            : UTF-8 Plain Text
Language                                 : German
Default                                  : Yes
Forced                                   : Yes


Download:
Share Online Share OnlineShare OnlineShare Online
 

Kommentare